osu file format v14

[General]
AudioFilename: Hanako.mp3
AudioLeadIn: 1004
PreviewTime: 928
Countdown: 1
SampleSet: None
StackLeniency: 0.7
Mode: 0
LetterboxInBreaks: 1
WidescreenStoryboard: 0

[Editor]
DistanceSpacing: 1.2
BeatDivisor: 8
GridSize: 4
TimelineZoom: 1

[Metadata]
Title:Hanako
TitleUnicode:Hanako
Artist:Ken Ashcorp
ArtistUnicode:Ken Ashcorp
Creator:ziin
Version:andrei7
Source:Katawa Shoujo
Tags:lilly she tastes like bacon hanako.mp3 andrei7
BeatmapID:723861
BeatmapSetID:45416

[Difficulty]
HPDrainRate:7
CircleSize:4
OverallDifficulty:7
ApproachRate:8
SliderMultiplier:2.6
SliderTickRate:2

[Events]
//Background and Video events
0,0,"bg.png",0,0
//Break Periods
//Storyboard Layer 0 (Background)
//Storyboard Layer 1 (Fail)
//Storyboard Layer 2 (Pass)
//Storyboard Layer 3 (Foreground)
//Storyboard Sound Samples

[TimingPoints]
-24,476.190476190476,4,2,0,100,1,0
1880,-100,4,1,0,64,0,0
1980,-100,4,2,0,100,0,0
2833,-100,4,1,0,64,0,0
3547,-100,4,2,0,100,0,0
3785,-100,4,1,0,64,0,0
4499,-100,4,2,0,100,0,0
4737,-100,4,1,0,64,0,0
5452,-100,4,2,0,100,0,0
5552,-100,4,1,0,64,0,0
5928,-100,4,2,0,100,0,0
6028,-100,4,1,0,64,0,0
6404,-100,4,2,0,100,0,0
6504,-100,4,1,0,64,0,0
6880,-100,4,2,0,100,0,0
6980,-100,4,1,0,64,0,0
7356,-100,4,2,0,100,0,0
7456,-100,4,1,0,64,0,0
7833,-100,4,2,0,100,0,0
7933,-100,4,1,0,64,0,0
8309,-100,4,2,0,100,0,0
8409,-100,4,1,0,64,0,0
9261,-100,4,2,0,100,0,0
9361,-100,4,1,0,64,0,0
9737,-100,4,2,0,100,0,0
9837,-100,4,1,0,64,0,0
11166,-100,4,2,0,100,0,0
11266,-100,4,1,0,64,0,0
11642,-100,4,2,0,100,0,0
11742,-100,4,1,0,64,0,0
12118,-100,4,2,0,100,0,0
12218,-100,4,1,0,64,0,0
12595,-100,4,2,0,100,0,0
12695,-100,4,1,0,64,0,0
13071,-100,4,2,0,100,0,0
13171,-100,4,1,0,64,0,0
13547,-100,4,2,0,100,0,0
13647,-100,4,1,0,64,0,0
14023,-100,4,2,0,100,0,0
14123,-100,4,1,0,64,0,0
14499,-100,4,2,0,100,0,0
14599,-100,4,1,0,64,0,0
14975,-100,4,2,0,100,0,0
15075,-100,4,1,0,64,0,0
15452,-100,4,2,0,100,0,0
15552,-100,4,1,0,64,0,0
15928,-100,4,2,0,100,0,0
16028,-100,4,1,0,64,0,0
16404,-100,4,2,0,100,0,0
16504,-100,4,1,0,64,0,0
16880,-100,4,2,0,100,0,0
16980,-100,4,1,0,64,0,0
17356,-100,4,2,0,100,0,0
18547,-100,4,1,0,64,0,0
18647,-100,4,2,0,100,0,0
19023,-100,4,1,0,64,0,0
19123,-100,4,2,0,100,0,0
20452,-100,4,1,0,64,0,0
20552,-100,4,2,0,100,0,0
20928,-100,4,1,0,64,0,0
21028,-100,4,2,0,100,0,0
22356,-100,4,1,0,64,0,0
24499,-100,4,2,0,100,0,0

[HitObjects]
172,84,1166,6,0,L|36:108,2,130
280,128,1880,1,0,0:0:0:0:
299,18,2118,6,0,B|275:27|239:75|279:127|279:127|315:163|295:227|257:237,1,260
144,344,2833,2,0,P|96:288|40:272,1,130
180,192,3309,1,0,0:0:0:0:
43,111,3547,1,0,0:0:0:0:
144,40,3785,6,0,B|220:36|256:92|256:92|292:36|368:40,1,260
448,176,4499,2,0,L|404:304,1,130
64,176,5214,2,0,L|106:298,1,130
256,256,5690,1,0,0:0:0:0:
148,76,5928,6,0,P|148:160|180:228,1,130
256,28,6404,1,0,0:0:0:0:
348,202,6642,2,0,P|367:140|364:76,1,130
163,202,7118,1,0,0:0:0:0:
210,59,7356,6,0,B|157:23|157:23|162:88,1,130
210,325,7833,2,0,B|157:361|157:361|162:296,1,130
393,219,8309,2,0,B|451:191|451:191|392:163,1,130
354,84,9023,6,0,P|418:80|468:120,1,130
354,299,9499,2,0,P|418:303|468:264,1,130
280,192,9975,2,0,B|256:176|216:192|216:192|184:204|152:192|152:192|120:180|84:192|84:192|52:204|20:192,1,260
324,96,10928,6,0,P|372:80|432:24,1,130
392,192,11404,2,0,L|262:192,2,130
324,288,12118,2,0,P|372:304|432:360,1,130
132,264,12833,5,0,0:0:0:0:
196,120,13071,1,0,0:0:0:0:
40,137,13309,1,0,0:0:0:0:
132,264,13547,2,0,P|203:279|267:263,1,130
352,144,14023,1,0,0:0:0:0:
196,120,14261,6,0,B|176:76|208:24|280:24|328:72|352:142,2,260
80,228,15452,1,0,0:0:0:0:
228,272,15690,1,0,0:0:0:0:
196,120,15928,1,0,0:0:0:0:
48,76,16166,1,0,0:0:0:0:
464,76,16642,5,0,0:0:0:0:
316,120,16880,1,0,0:0:0:0:
432,228,17118,2,0,P|416:296|376:344,1,130
334,122,17595,2,0,B|312:200|312:200|324:248,1,130
177,122,18071,2,0,B|200:200|200:200|188:248,1,130
80,228,18547,2,0,P|96:296|136:344,1,130
177,122,19023,6,0,P|140:76|64:64,1,130
334,261,19499,2,0,P|372:308|448:320,1,130
334,122,19975,2,0,P|372:76|448:64,1,130
177,261,20451,2,0,P|140:308|64:320,1,130
256,72,20928,5,0,0:0:0:0:
376,192,21166,1,0,0:0:0:0:
136,192,21404,1,0,0:0:0:0:
256,312,21642,1,0,0:0:0:0:
376,72,21880,5,0,0:0:0:0:
376,312,22118,1,0,0:0:0:0:
136,72,22356,1,0,0:0:0:0:
136,312,22594,1,0,0:0:0:0:
472,192,22833,5,0,0:0:0:0:
40,192,23309,1,0,0:0:0:0:
408,328,23785,5,0,0:0:0:0:
72,260,24023,1,0,0:0:0:0:
440,260,24261,5,0,0:0:0:0:
40,192,24499,1,0,0:0:0:0:
472,192,24737,5,0,0:0:0:0:
