osu file format v12

[General]
AudioFilename: 20 Percent Cooler AlexS.mp3
AudioLeadIn: 0
PreviewTime: 124350
Countdown: 0
SampleSet: Normal
StackLeniency: 0.7
Mode: 0
LetterboxInBreaks: 1
WidescreenStoryboard: 1

[Editor]
DistanceSpacing: 1
BeatDivisor: 4
GridSize: 8

[Metadata]
Title:20 Percent Cooler (Alex S. Remix)
TitleUnicode:20 Percent Cooler (Alex S. Remix)
Artist:Ken Ashcorp
ArtistUnicode:Ken Ashcorp
Creator:p3n
Version:Challenging
Source:
Tags:Rainbow Dash Rarity Pinkie Pie Twilight Sparkle Applejack Spike Fluttershy MLP My Little Pony Friendship is Magic
BeatmapID:279731
BeatmapSetID:106552

[Difficulty]
HPDrainRate:6
CircleSize:4
OverallDifficulty:7
ApproachRate:8
SliderMultiplier:2.6
SliderTickRate:2

[Events]
//Background and Video events
0,0,"BG1.jpg",0,0
//Break Periods
2,74374,81537
//Storyboard Layer 0 (Background)
//Storyboard Layer 1 (Fail)
//Storyboard Layer 2 (Pass)
//Storyboard Layer 3 (Foreground)
//Storyboard Sound Samples
//Background Colour Transformations
3,100,0,0,0

[TimingPoints]
4356,545.454545454546,4,2,0,60,1,0
21810,-100,4,1,0,70,0,0
30537,-200,4,1,0,40,0,0
31083,-142.857142857143,4,1,0,30,0,0
31628,-111.111111111111,4,1,0,20,0,0
32174,-90.9090909090909,4,1,0,20,0,0
32719,-200,4,1,0,20,0,0
33265,-142.857142857143,4,1,0,30,0,0
33810,-111.111111111111,4,1,0,40,0,0
34356,-90.9090909090909,4,1,0,60,0,0
36946,-90.9090909090909,4,2,0,5,0,0
39265,-100,4,1,0,70,0,1
56446,-100,4,1,0,70,0,0
56719,-100,4,1,0,70,0,1
74174,-100,4,2,0,60,0,0
82901,-100,4,3,0,60,0,0
91628,-100,4,1,0,70,0,0
109083,-100,4,2,0,60,0,0
124356,-200,4,2,0,30,0,0
125446,-200,4,3,0,60,0,0
125992,-100,4,1,0,100,0,0
126537,-100,4,1,0,70,0,1
126674,-100,4,1,0,70,0,0
143992,-100,4,1,0,70,0,1
161446,-100,4,3,0,60,0,0
174810,-200,4,1,0,30,0,0
175356,-166.666666666667,4,1,0,40,0,0
175901,-142.857142857143,4,1,0,50,0,0
176446,-125,4,1,0,60,0,0
176992,-111.111111111111,4,1,0,70,0,0
177537,-100,4,1,0,80,0,0
178083,-90.9090909090909,4,1,0,90,0,0
178628,-50,4,1,0,100,0,0
178901,-100,4,1,0,70,0,1
179037,-100,4,1,0,70,0,0
194174,-100,4,2,0,40,0,0
195810,-100,4,1,0,85,0,0
196356,-100,4,1,0,70,0,1
196492,-100,4,1,0,85,0,0
213810,-100,4,1,0,85,0,1
231265,-200,4,2,0,40,0,0

[Colours]
Combo1 : 166,0,166
Combo2 : 1,180,248
Combo3 : 145,251,0
Combo4 : 255,241,119
Combo5 : 234,112,0
Combo6 : 249,0,37

[HitObjects]
256,72,4356,2,0,B|296:72|352:96|376:120,2,130,4|0|0,1:1|0:0|0:0,0:0:0:0:
56,232,5446,2,0,L|96:104,1,130
136,232,5992,2,0,L|216:128,2,130
56,336,6810,1,0,0:0:0:0:
184,360,7083,6,0,P|224:344|248:320,1,65
328,232,7492,1,0,0:0:0:0:
353,199,7628,2,0,P|393:159|465:143,1,130
481,107,8037,2,0,P|441:51|376:24,1,130
344,16,8446,1,0,0:0:0:0:
256,104,8719,5,2,1:2:0:0:
80,296,9265,1,0,0:0:0:0:
168,200,9537,1,0,0:0:0:0:
256,104,9810,2,0,P|296:160|296:224,1,130
264,344,10356,2,0,P|296:352|328:344,1,65
416,168,10901,5,0,0:0:0:0:
256,136,11446,1,0,0:0:0:0:
256,96,11583,1,0,0:0:0:0:
256,248,11856,1,0,0:0:0:0:
256,288,11992,1,0,0:0:0:0:
136,136,12265,2,0,L|98:83,1,65
136,240,12674,2,0,L|98:292,1,65
0,208,13083,6,0,P|16:176|16:144,1,65,4|0,0:0|0:0,0:0:0:0:
48,120,13356,2,0,B|80:88|120:72|184:72,1,130,0|2,0:0|0:0,0:0:0:0:
240,320,13901,1,0,0:0:0:0:
280,312,14037,1,0,0:0:0:0:
312,288,14174,2,0,B|344:272|368:224|368:176,1,130
325,159,14583,1,0,0:0:0:0:
304,200,14719,2,0,P|352:240|416:256,1,130,2|0,0:0|0:0,0:0:0:0:
424,88,15265,6,0,P|448:56|488:32,2,65,0|0|2,0:0|0:0|0:0,0:0:0:0:
272,56,15810,2,0,L|136:56,2,130,2|0|0,0:0|0:0|0:0,0:0:0:0:
368,144,16628,1,0,0:0:0:0:
375,188,16765,1,0,0:0:0:0:
352,224,16901,1,2,0:0:0:0:
224,336,17174,1,0,0:0:0:0:
72,256,17446,6,0,P|112:200|128:136,2,130,4|0|2,0:0|0:0|0:0,0:0:0:0:
40,280,18128,1,0,0:0:0:0:
160,336,18401,1,0,0:0:0:0:
160,296,18537,2,0,P|176:224|216:168,1,130
328,216,19083,2,0,P|358:169|374:97,1,130,2|0,0:0|0:0,0:0:0:0:
256,192,19628,12,4,21810,0:0:0:0:
144,232,22356,6,0,P|111:216|88:176,1,65
80,152,22628,1,0,0:0:0:0:
96,112,22765,1,0,0:0:0:0:
128,88,22901,2,0,B|168:112|216:112|256:96,1,130
198,41,23446,2,0,P|189:110|215:182,1,130
320,104,23992,6,0,L|400:64,3,86.6666666666667
408,192,24810,1,0,0:0:0:0:
256,328,25083,1,0,0:0:0:0:
104,192,25356,1,0,0:0:0:0:
256,72,25628,2,0,B|280:136|336:184|408:192,1,195
440,192,26174,5,4,1:2:0:0:
256,328,26719,2,0,P|200:288|136:272,1,130
104,272,27128,1,0,0:0:0:0:
64,272,27265,2,0,P|23:212|5:156,2,130
256,192,28083,1,0,0:0:0:0:
440,256,28356,6,0,P|400:200|384:136,2,130,0|0|0,0:0|0:0|0:0,0:0:0:0:
472,280,29037,1,0,0:0:0:0:
352,336,29310,1,0,0:0:0:0:
352,296,29446,2,0,P|336:224|296:168,1,130
128,96,29992,2,0,P|176:144|240:160,1,130,0|0,0:0|0:0,0:0:0:0:
256,48,30537,6,0,L|320:48,1,65,4|0,0:0|0:0,0:0:0:0:
192,128,31083,6,0,L|288:128,1,90.9999972229005
128,208,31628,6,0,L|248:208,1,116.999996429443
56,288,32174,6,0,L|200:288,1,143.000004364014
416,48,32719,6,0,L|352:48,1,65
384,128,33265,6,0,L|288:128,1,90.9999972229005
352,208,33810,6,0,L|232:208,1,116.999996429443
320,288,34356,6,0,L|176:288,1,143.000004364014
256,192,34901,12,8,36946,2:0:0:0:
96,272,39265,5,4,0:0:0:0:
96,272,39537,1,0,0:0:0:0:
120,144,39810,2,0,P|128:120|168:96,2,65
224,224,40356,2,0,P|245:247|248:280,2,65
256,96,40901,1,0,0:0:0:0:
96,272,41174,1,0,0:0:0:0:
222,224,41446,6,0,L|230:288,1,65
288,200,41719,2,0,L|320:264,1,65
344,160,41992,6,0,L|400:216,1,65
376,96,42265,2,0,L|448:120,1,65
304,99,42537,6,0,L|320:168,1,65
232,96,42810,2,0,L|224:168,1,65
166,74,43083,6,0,L|126:146,1,65
110,30,43356,2,0,L|46:78,1,65
48,168,43628,5,4,0:0:0:0:
48,168,43901,1,0,0:0:0:0:
72,296,44174,2,0,P|80:320|120:344,2,65
176,216,44719,2,0,P|197:193|200:160,2,65
208,344,45265,1,0,0:0:0:0:
49,167,45537,1,0,0:0:0:0:
176,216,45810,5,0,0:0:0:0:
216,208,45946,1,0,0:0:0:0:
248,184,46083,1,0,0:0:0:0:
256,56,46356,1,0,0:0:0:0:
368,120,46628,1,0,0:0:0:0:
400,144,46765,1,0,0:0:0:0:
408,184,46901,1,0,0:0:0:0:
320,280,47174,2,0,L|272:328,1,65
168,256,47583,2,0,L|96:296,2,65
200,240,47992,5,4,0:0:0:0:
400,144,48265,1,0,0:0:0:0:
176,128,48537,2,0,P|149:105|104:96,2,65
368,232,49083,2,0,P|393:255|432:264,2,65
120,96,49628,1,0,0:0:0:0:
424,264,49901,1,0,0:0:0:0:
296,104,50174,5,0,0:0:0:0:
256,96,50310,1,0,0:0:0:0:
216,104,50446,1,0,0:0:0:0:
144,208,50719,5,0,0:0:0:0:
154,245,50856,1,0,0:0:0:0:
186,266,50992,5,0,0:0:0:0:
224,264,51128,1,0,0:0:0:0:
253,238,51265,5,0,0:0:0:0:
283,214,51401,1,0,0:0:0:0:
321,216,51537,5,0,0:0:0:0:
354,236,51674,1,0,0:0:0:0:
368,272,51810,5,0,0:0:0:0:
368,272,52083,1,0,0:0:0:0:
96,272,52356,5,4,0:0:0:0:
96,272,52628,1,0,0:0:0:0:
85,141,52901,2,0,P|86:115|118:82,2,65
206,191,53446,2,0,P|232:207|243:238,2,65
96,272,53992,1,0,0:0:0:0:
204,59,54265,1,0,0:0:0:0:
400,64,54537,5,0,0:0:0:0:
384,104,54674,1,0,0:0:0:0:
384,141,54810,2,0,P|400:200|440:256,1,130
472,280,55219,1,0,0:0:0:0:
341,338,55492,1,0,0:0:0:0:
345,298,55628,2,0,P|337:234|281:178,1,130
262,163,56037,1,0,0:0:0:0:
224,168,56174,2,0,P|194:121|178:49,1,130,0|0,0:0|0:0,0:0:0:0:
144,32,56583,1,0,0:0:0:0:
104,40,56719,6,0,P|72:104|72:168,1,130,4|0,0:0|0:0,0:0:0:0:
120,280,57265,2,0,P|176:248|240:248,1,130
360,200,57810,2,0,P|368:168|368:128,2,65
304,344,58356,1,0,0:0:0:0:
488,192,58628,1,0,0:0:0:0:
368,248,58901,6,0,P|376:272|408:312,2,65
360,200,59310,1,0,0:0:0:0:
315,220,59446,6,0,P|293:233|263:275,2,65
360,200,59856,1,0,0:0:0:0:
329,162,59992,6,0,P|310:145|262:126,2,65
360,200,60401,1,0,0:0:0:0:
388,160,60537,6,0,P|399:137|404:86,2,65
360,200,60946,1,0,0:0:0:0:
315,220,61083,5,4,0:0:0:0:
112,144,61356,1,0,0:0:0:0:
336,128,61628,2,0,P|363:105|408:96,2,65
144,232,62174,2,0,P|119:255|80:264,2,65
392,96,62719,1,0,0:0:0:0:
88,264,62992,1,0,0:0:0:0:
216,104,63265,5,0,0:0:0:0:
256,96,63401,1,0,0:0:0:0:
296,104,63537,1,0,0:0:0:0:
368,208,63810,1,0,0:0:0:0:
280,304,64083,2,0,P|264:344|264:376,2,65
176,224,64628,2,0,P|144:240|120:264,1,65
104,112,65037,2,0,P|68:114|36:126,2,65
227,81,65446,6,0,L|291:41,1,65,4|0,0:0|0:0,0:0:0:0:
286,129,65719,2,0,L|353:107,1,65
320,192,65992,1,0,0:0:0:0:
320,232,66128,1,0,0:0:0:0:
304,264,66265,2,0,P|256:312|192:328,1,130
168,304,66674,1,0,0:0:0:0:
168,264,66810,2,0,P|160:192|128:144,2,130
264,176,67628,6,0,L|280:112,1,65
288,72,67901,1,0,0:0:0:0:
416,64,68174,5,0,0:0:0:0:
447,83,68310,1,0,0:0:0:0:
456,121,68446,5,0,0:0:0:0:
443,156,68583,1,0,0:0:0:0:
409,175,68719,5,0,0:0:0:0:
377,196,68856,1,0,0:0:0:0:
368,234,68992,5,0,0:0:0:0:
376,271,69128,1,0,0:0:0:0:
408,296,69265,5,0,0:0:0:0:
408,296,69537,1,0,0:0:0:0:
104,296,69810,5,4,0:0:0:0:
104,296,70083,1,0,0:0:0:0:
128,168,70356,2,0,P|136:144|176:120,2,65
232,248,70901,2,0,P|253:271|256:304,2,65
264,120,71446,1,0,0:0:0:0:
368,192,71719,2,0,P|392:216|424:224,1,65
256,192,71992,12,4,74174,0:0:0:0:
104,88,82628,37,10,1:2:0:0:
232,80,82901,2,0,P|296:112|360:104,1,130,8|0,0:0|0:0,0:0:0:0:
256,192,83446,2,0,P|168:200|120:232,1,130,8|0,0:0|0:0,0:0:0:0:
120,256,83856,1,0,0:0:0:0:
136,288,83992,2,0,P|200:320|320:296,1,195,8|8,0:0|0:0,0:0:0:0:
344,272,84537,2,0,P|360:208|408:168,1,130,0|8,0:0|0:0,0:0:0:0:
448,160,84946,1,0,0:0:0:0:
456,120,85083,6,0,L|472:48,1,65,8|0,0:0|0:0,0:0:0:0:
389,101,85356,2,0,L|392:24,1,65
318,89,85628,2,0,L|304:24,2,65,8|0|0,0:0|0:0|0:0,0:0:0:0:
328,216,86174,2,0,P|312:288|216:368,2,195,8|8|8,0:0|0:0|0:0,0:0:0:0:
328,176,87128,1,0,0:0:0:0:
304,144,87265,6,0,P|248:136|192:80,1,130,8|0,0:0|0:0,0:0:0:0:
160,88,87674,1,0,0:0:0:0:
136,120,87810,2,0,P|119:190|55:247,1,130,8|0,0:0|0:0,0:0:0:0:
32,144,88356,2,0,P|96:168|200:256,1,195,8|8,0:0|0:0,0:0:0:0:
200,288,88901,2,0,P|240:320|320:328,1,130,0|8,0:0|0:0,0:0:0:0:
352,312,89310,2,0,L|344:232,1,65,0|8,0:0|0:0,0:0:0:0:
424,304,89583,2,0,L|432:232,1,65
344,136,89992,6,0,P|320:96|272:72,3,86.6666666666667
248,72,90674,2,0,P|216:80|168:48,1,65
176,200,91083,2,0,L|312:248,1,130,4|0,1:0|0:0,0:0:0:0:
336,256,91492,1,0,0:0:0:0:
376,272,91628,6,0,P|440:224|496:224,1,130,4|0,0:0|0:0,0:0:0:0:
480,344,92174,1,0,0:0:0:0:
368,128,92446,1,0,0:0:0:0:
256,344,92719,1,0,0:0:0:0:
144,128,92992,1,0,0:0:0:0:
40,344,93265,6,0,P|104:344|168:320,1,130
184,288,93674,1,0,0:0:0:0:
208,256,93810,2,0,P|272:224|352:216,1,130
496,128,94356,2,0,P|432:128|368:152,1,130
352,184,94765,1,0,0:0:0:0:
328,216,94901,2,0,P|264:248|184:256,1,130
232,128,95446,5,0,0:0:0:0:
304,352,95719,1,0,0:0:0:0:
80,288,95992,5,0,0:0:0:0:
104,256,96128,1,0,0:0:0:0:
136,240,96265,2,0,P|176:224|224:224,1,65
232,240,96537,2,0,P|288:248|357:214,1,130
376,184,96946,1,0,0:0:0:0:
376,144,97083,2,0,P|304:104|288:48,1,130
416,24,97628,5,0,0:0:0:0:
232,192,97901,1,0,0:0:0:0:
368,240,98174,6,0,L|432:280,1,65
320,296,98446,2,0,L|368:352,1,65
256,328,98719,2,0,P|192:344|120:320,1,130
112,296,99128,1,0,0:0:0:0:
80,280,99265,2,0,P|72:216|32:152,1,130
32,120,99674,1,0,0:0:0:0:
72,104,99810,2,0,P|152:128|200:168,1,130
320,136,100356,6,0,L|392:112,1,65,4|0,0:0|0:0,0:0:0:0:
328,208,100628,2,0,L|400:208,1,65
296,272,100901,1,0,0:0:0:0:
120,176,101174,1,0,0:0:0:0:
320,136,101446,1,0,0:0:0:0:
120,176,101719,1,0,0:0:0:0:
296,272,101992,1,0,0:0:0:0:
488,232,102265,2,0,L|504:168,1,65
488,136,102537,6,0,P|424:104|376:64,1,130
352,32,102946,1,0,0:0:0:0:
328,64,103083,2,0,P|256:96|192:104,1,130
80,80,103628,2,0,P|168:88|232:120,1,130
240,128,104037,2,0,P|304:176|368:192,1,130
336,232,104446,2,0,L|280:280,1,65
248,280,104719,6,0,P|200:224|136:216,1,130
136,344,105265,1,0,0:0:0:0:
293,165,105537,2,0,L|344:112,1,65
376,128,105810,2,0,P|424:184|488:192,1,130
488,64,106356,1,0,0:0:0:0:
376,264,106628,2,0,L|328:336,1,65
320,224,106901,2,0,L|264:272,1,65,4|0,0:0|0:0,0:0:0:0:
240,136,107310,6,0,L|176:160,1,65
216,72,107583,2,0,L|152:80,1,65
24,96,107992,2,0,P|32:160|72:232,1,130
160,304,108537,1,0,0:0:0:0:
192,320,108674,1,0,0:0:0:0:
232,320,108810,1,0,0:0:0:0:
264,304,108946,1,0,0:0:0:0:
288,272,109083,6,0,P|336:224|400:216,1,130,4|0,0:0|0:0,0:0:0:0:
248,160,109628,2,0,P|313:142|376:144,1,130,0|0,0:0|0:0,0:0:0:0:
288,48,110174,2,0,P|351:59|424:88,1,130
504,238,110719,2,0,P|512:208|504:176,1,65,0|2,0:0|0:0,0:0:0:0:
376,224,111128,2,0,P|368:256|376:288,1,65,2|0,0:0|0:0,0:0:0:0:
199,145,111537,1,0,0:0:0:0:
75,277,111810,1,0,0:0:0:0:
259,321,112083,1,0,0:0:0:0:
112,192,112356,2,0,L|62:145,1,65,0|4,0:0|0:3,0:0:0:0:
260,224,112765,2,0,L|320:201,1,65,4|0,0:3|0:0,0:0:0:0:
256,24,113174,1,0,0:0:0:0:
199,145,113446,6,0,P|183:209|198:271,1,130,0|0,1:0|0:0,0:0:0:0:
318,230,113992,2,0,P|254:239|198:271,1,130,0|0,0:0|0:0,0:0:0:0:
284,362,114537,2,0,P|254:311|198:271,1,130
40,170,115083,2,0,P|32:200|40:232,1,65,0|2,0:0|0:0,0:0:0:0:
168,184,115492,2,0,P|176:152|168:120,1,65,2|0,0:0|0:0,0:0:0:0:
296,80,115901,2,0,P|368:72|432:112,2,130
336,200,116719,1,0,0:0:0:0:
320,240,116856,2,0,P|272:288|200:304,1,130,4|4,0:3|0:3,0:0:0:0:
184,280,117265,2,0,P|112:288|56:328,1,130
104,192,117810,6,0,B|160:168|232:192|232:192|232:120|296:88,2,260,0|0|0,1:0|0:0|0:0,0:0:0:0:
184,296,119174,2,0,P|240:312|304:280,1,130
328,256,119583,1,2,0:0:0:0:
208,192,119856,1,2,0:0:0:0:
216,152,119992,2,0,B|224:104|267:76|267:76|288:32,2,130
328,256,120810,2,0,B|376:248|400:208|400:208|440:184,1,130
472,168,121219,1,4,0:3:0:0:
368,56,121492,1,4,0:3:0:0:
328,72,121628,2,0,P|264:88|200:72,1,130
256,192,122174,5,0,1:0:0:0:
40,344,122719,1,0,0:0:0:0:
40,40,123265,1,0,0:0:0:0:
256,192,123810,1,0,0:0:0:0:
56,192,124356,6,0,B|80:120|151:115|151:115|192:112|208:64,1,195
272,80,125446,38,0,L|280:48,1,32.5,0|0,0:0|0:0,0:0:0:0:
312,104,125719,2,0,L|336:72,1,32.5,0|0,0:0|0:0,0:0:0:0:
344,144,125992,5,0,0:0:0:0:
352,184,126128,5,0,0:0:0:0:
341,221,126265,5,0,0:0:0:0:
319,253,126401,5,0,0:0:0:0:
280,272,126537,6,0,L|280:336,1,65,4|0,0:0|0:0,0:0:0:0:
208,264,126810,2,0,L|192:336,1,65
152,224,127083,2,0,B|154:188|124:143|83:119,1,130,2|0,0:2|0:0,0:0:0:0:
47,147,127492,1,0,0:0:0:0:
71,186,127628,2,0,P|129:164|175:117,1,130,0|0,0:0|0:0,0:0:0:0:
216,112,128037,1,0,0:0:0:0:
232,72,128174,2,0,P|296:40|360:40,1,130,2|0,0:2|0:0,0:0:0:0:
416,152,128719,5,0,0:0:0:0:
424,192,128856,1,0,0:0:0:0:
448,224,128992,2,0,P|488:280|488:344,2,130,0|2|0,0:0|0:2|0:0,0:0:0:0:
317,198,129810,2,0,P|253:199|188:231,1,130
160,248,130219,1,0,0:0:0:0:
136,280,130356,1,2,0:2:0:0:
280,344,130628,1,0,0:0:0:0:
116,138,130901,6,0,P|176:105|218:54,2,130,4|0|2,0:0|0:0|0:2,0:0:0:0:
76,145,131583,1,0,0:0:0:0:
160,248,131856,1,0,0:0:0:0:
177,212,131992,2,0,P|222:154|283:121,1,130
456,127,132537,2,0,P|410:184|363:214,1,130,2|0,0:2|0:0,0:0:0:0:
160,248,133083,6,0,L|104:280,2,65
256,80,133628,1,2,0:2:0:0:
352,248,133901,2,0,L|408:280,2,65
160,144,134446,2,0,L|104:112,1,65
352,144,134856,2,0,L|408:112,1,65
256,192,135265,1,4,0:0:0:0:
96,320,135810,6,0,P|128:336|168:336,1,65,2|0,0:2|0:0,0:0:0:0:
192,320,136083,1,0,0:0:0:0:
232,312,136219,1,0,0:0:0:0:
272,320,136356,2,0,B|310:358|363:356|394:325,1,130
336,136,136901,2,0,P|320:200|344:272,1,130,2|0,0:2|0:0,0:0:0:0:
224,192,137446,6,0,P|187:161|144:144,3,86.6666666666667,0|0|0|2,0:0|0:0|0:0|0:2,0:0:0:0:
312,40,138265,1,0,0:0:0:0:
432,192,138537,1,0,0:0:0:0:
312,344,138810,1,0,0:0:0:0:
184,192,139083,2,0,P|104:192|128:280,1,195,2|0,0:2|0:0,0:0:0:0:
160,296,139628,1,4,0:0:0:0:
256,56,140174,6,0,P|312:96|376:112,1,130,2|0,0:2|0:0,0:0:0:0:
408,112,140583,1,0,0:0:0:0:
448,112,140719,2,0,P|448:184|432:240,2,130,0|0|2,0:0|0:0|0:2,0:0:0:0:
256,192,141537,1,2,0:2:0:0:
64,272,141810,2,0,P|64:200|80:144,2,130,4|0|0,0:0|0:0|0:0,0:0:0:0:
96,296,142492,2,0,P|144:240|200:208,1,130
232,224,142901,2,0,P|216:280|216:352,1,130
424,208,143446,2,0,P|456:128|424:64,1,130,0|0,0:0|0:0,0:0:0:0:
192,264,143992,5,4,0:0:0:0:
312,112,144265,1,0,0:0:0:0:
120,144,144537,2,0,P|128:120|168:96,2,65
224,224,145083,2,0,P|245:247|248:280,2,65
256,96,145628,1,0,0:0:0:0:
96,272,145901,1,0,0:0:0:0:
336,296,146174,6,0,L|390:331,1,65
360,230,146446,2,0,L|429:246,1,65
365,161,146719,6,0,L|443:154,1,65
336,95,146992,2,0,L|400:55,1,65
263,98,147265,6,0,L|208:64,1,65
233,163,147537,2,0,L|169:158,1,65
239,232,147810,6,0,L|176:248,1,65
263,298,148083,2,0,L|209:334,1,65
360,192,148356,5,4,0:0:0:0:
128,192,148628,1,0,0:0:0:0:
88,312,148901,2,0,P|102:332|147:344,2,65
165,206,149446,2,0,P|178:178|172:145,2,65
30,194,149992,1,0,0:0:0:0:
231,320,150265,1,0,0:0:0:0:
392,204,150537,5,0,0:0:0:0:
418,173,150674,1,0,0:0:0:0:
429,134,150810,1,0,0:0:0:0:
344,48,151083,1,0,0:0:0:0:
200,32,151356,1,0,0:0:0:0:
168,56,151492,1,0,0:0:0:0:
160,96,151628,1,0,0:0:0:0:
216,208,151901,2,0,L|264:256,1,65
368,184,152310,2,0,L|440:224,2,65
336,168,152719,5,4,0:0:0:0:
104,168,152992,1,0,0:0:0:0:
328,96,153265,2,0,P|357:79|376:32,2,65
136,232,153810,2,0,P|106:250|88:296,2,65
408,132,154356,1,0,0:0:0:0:
56,196,154628,1,0,0:0:0:0:
216,328,154901,5,0,0:0:0:0:
256,336,155037,1,0,0:0:0:0:
296,328,155174,1,0,0:0:0:0:
387,235,155446,1,0,0:0:0:0:
380,196,155583,1,0,0:0:0:0:
360,162,155719,1,0,0:0:0:0:
330,135,155856,1,0,0:0:0:0:
295,116,155992,2,0,P|229:93|162:104,2,130
376,16,156810,1,0,0:0:0:0:
248,200,157083,5,4,0:0:0:0:
488,200,157356,1,0,0:0:0:0:
368,136,157628,2,0,L|312:96,2,65
368,264,158174,2,0,L|312:320,2,65
488,200,158719,1,0,0:0:0:0:
248,200,158992,1,0,0:0:0:0:
384,64,159265,5,0,0:0:0:0:
368,104,159401,1,0,0:0:0:0:
368,144,159537,2,0,P|376:200|424:259,1,130
456,272,159946,1,0,0:0:0:0:
368,376,160219,1,0,0:0:0:0:
352,336,160356,2,0,P|312:288|232:264,1,130
216,288,160765,2,0,P|152:272|104:232,1,130,0|0,0:0|0:0,0:0:0:0:
104,192,161174,2,0,P|80:168|40:152,1,65
109,79,161446,6,0,P|173:71|224:32,1,130,8|0,0:0|0:0,0:0:0:0:
320,72,161992,2,0,P|296:147|254:184,1,130,8|0,0:0|0:0,0:0:0:0:
273,222,162401,1,0,0:0:0:0:
308,231,162537,2,0,P|374:203|410:150,1,130,8|0,0:0|0:0,0:0:0:0:
451,158,162946,1,8,0:0:0:0:
464,200,163083,2,0,P|456:240|440:272,1,65,0|8,0:0|0:0,0:0:0:0:
408,273,163356,2,0,P|392:305|392:353,1,65,0|8,0:0|0:0,0:0:0:0:
349,338,163628,6,0,P|287:334|216:306,1,130,8|0,0:0|0:0,0:0:0:0:
186,296,164037,2,0,P|190:261|174:221,1,65,0|8,0:0|0:3,0:0:0:0:
237,71,164446,2,0,P|213:103|181:127,1,65
192,160,164719,2,0,P|288:187|408:179,2,195,8|8|8,0:0|0:0|0:0,0:0:0:0:
152,144,165674,1,0,0:0:0:0:
112,128,165810,6,0,L|48:104,1,65,8|0,0:0|0:0,0:0:0:0:
93,195,166083,2,0,L|21:195,1,65
119,261,166356,2,0,L|55:309,1,65,8|0,0:0|0:0,0:0:0:0:
187,288,166628,2,0,L|147:344,1,65
256,296,166901,2,0,P|352:288|432:208,2,195,8|8|8,0:0|0:0|0:0,0:0:0:0:
256,168,167992,5,8,0:0:0:0:
352,80,168265,1,0,0:0:0:0:
384,104,168401,1,0,0:0:0:0:
424,104,168537,1,8,0:0:0:0:
400,232,168810,1,0,0:0:0:0:
376,264,168946,1,0,0:0:0:0:
376,304,169083,5,8,0:0:0:0:
136,304,169356,1,0,0:0:0:0:
136,80,169628,1,0,0:0:0:0:
376,80,169901,1,8,0:0:0:0:
256,192,170174,6,0,P|192:215|153:280,1,130,8|0,0:0|0:0,0:0:0:0:
268,312,170719,2,0,P|340:315|400:285,1,130,8|0,0:0|0:0,0:0:0:0:
416,256,171128,1,0,0:0:0:0:
408,216,171265,2,0,P|384:152|400:80,1,130,8|0,0:0|0:0,0:0:0:0:
376,56,171674,1,8,0:0:0:0:
344,32,171810,2,0,P|272:40|224:80,1,130,0|8,0:0|0:0,0:0:0:0:
104,112,172356,38,0,P|136:168|216:200,2,130,8|0|8,0:0|0:0|0:0,0:0:0:0:
228,75,173174,2,0,L|300:83,1,65
336,88,173446,2,0,B|336:160|376:200|424:200,1,130,8|0,0:0|0:0,0:0:0:0:
336,88,173992,2,0,B|336:160|296:200|248:200,1,130,0|8,0:0|0:0,0:0:0:0:
120,56,174537,53,8,0:0:0:0:
144,184,174810,2,0,L|96:208,2,32.5,0|0|8,0:0|0:0|0:3,3:0:0:0:
264,288,175356,6,0,L|240:344,2,38.9999988098145,0|0|8,0:0|0:0|0:3,3:0:0:0:
424,304,175901,2,0,L|424:360,2,45.4999986114502,0|8|0,0:0|0:3|0:0,3:0:0:0:
392,56,176446,6,0,L|464:56,2,52,8|0|0,0:3|0:0|0:3,3:0:0:0:
368,184,176992,2,0,L|432:208,2,58.4999982147217,0|0|0,0:0|0:0|0:0,3:0:0:0:
248,288,177537,6,0,L|280:352,2,65,0|0|0,0:0|0:0|0:0,3:0:0:0:
88,304,178083,2,0,L|88:376,2,71.5000021820069,0|0|0,0:0|0:0|0:0,3:0:0:0:
56,176,178628,6,0,P|160:80|280:48,1,260,0|4,0:0|0:0,0:2:0:0:
400,48,179174,6,0,L|472:48,2,65
384,192,179719,1,0,0:0:0:0:
359,334,179992,2,0,P|287:302|255:263,1,130
256,224,180401,1,0,0:0:0:0:
256,264,180537,2,0,P|224:302|152:334,1,130
128,192,181083,5,0,0:0:0:0:
256,40,181356,1,0,0:0:0:0:
384,192,181628,1,0,0:0:0:0:
256,344,181901,1,0,0:0:0:0:
152,104,182174,2,0,P|224:136|256:175,1,130
255,214,182583,1,0,0:0:0:0:
255,174,182719,2,0,P|287:136|359:104,1,130
256,32,183265,5,4,0:0:0:0:
136,240,183537,1,0,0:0:0:0:
376,240,183810,5,0,0:0:0:0:
296,344,184083,2,0,P|328:328|368:336,1,65
400,336,184356,2,0,P|456:304|472:224,1,130
480,208,184765,1,0,0:0:0:0:
464,168,184901,2,0,P|408:144|376:80,1,130
192,232,185446,5,0,0:0:0:0:
288,152,185719,2,0,P|312:128|352:104,1,65
376,128,185992,2,0,P|424:184|488:192,1,130
488,64,186537,1,0,0:0:0:0:
368,272,186810,2,0,P|344:304|304:328,1,65
280,312,187083,2,0,P|232:256|168:248,1,130
168,376,187628,5,4,0:0:0:0:
312,176,187901,2,0,P|336:112|320:48,2,130
200,112,188719,2,0,P|137:123|96:176,1,130
88,208,189128,1,0,0:0:0:0:
96,248,189265,1,0,0:0:0:0:
120,280,189401,1,0,0:0:0:0:
160,296,189537,1,0,0:0:0:0:
368,64,189810,6,0,P|408:104|416:184,1,130
288,320,190356,1,0,0:0:0:0:
160,176,190628,1,0,0:0:0:0:
288,32,190901,2,0,P|288:96|345:146,1,130
416,40,191446,2,0,L|488:0,2,65
160,176,191992,5,4,0:0:0:0:
32,192,192265,2,0,P|56:256|108:296,2,130
80,72,193083,1,0,0:0:0:0:
256,192,193356,1,0,0:0:0:0:
256,192,193492,1,0,0:0:0:0:
256,192,193628,1,0,0:0:0:0:
432,312,193901,1,0,0:2:0:0:
432,312,194037,1,0,0:0:0:0:
432,312,194174,1,4,0:0:0:0:
344,240,195810,5,0,0:0:0:0:
352,200,195946,5,0,0:0:0:0:
341,163,196083,5,0,0:0:0:0:
319,131,196219,5,0,0:0:0:0:
280,112,196356,6,0,L|280:48,1,65,4|0,0:0|0:0,0:0:0:0:
209,117,196628,2,0,L|193:45,1,65
152,160,196901,2,0,B|154:196|124:241|83:265,1,130,2|0,0:2|0:0,0:0:0:0:
46,237,197310,1,0,0:0:0:0:
71,198,197446,2,0,P|129:220|175:267,1,130,0|0,0:0|0:0,0:0:0:0:
216,280,197856,1,0,0:0:0:0:
232,312,197992,2,0,P|296:344|360:344,1,130,2|0,0:2|0:0,0:0:0:0:
416,232,198537,5,0,0:0:0:0:
424,192,198674,1,0,0:0:0:0:
448,160,198810,2,0,P|488:104|488:40,2,130,0|2|0,0:0|0:2|0:0,0:0:0:0:
320,176,199628,2,0,P|248:176|192:152,1,130
160,136,200037,1,0,0:0:0:0:
136,104,200174,1,2,0:2:0:0:
280,40,200446,1,0,0:0:0:0:
116,246,200719,6,0,P|176:279|218:330,2,130,4|0|2,0:0|0:0|0:2,0:0:0:0:
76,239,201401,1,0,0:0:0:0:
160,136,201674,1,0,0:0:0:0:
177,172,201810,2,0,P|222:230|283:263,1,130,0|0,0:0|0:0,0:0:0:0:
456,257,202356,2,0,P|410:200|363:170,1,130,2|0,0:2|0:0,0:0:0:0:
160,136,202901,6,0,L|104:104,2,65
256,304,203446,1,2,0:2:0:0:
352,136,203719,2,0,L|408:104,2,65
160,240,204265,2,0,L|104:272,1,65
352,240,204674,2,0,L|408:272,1,65
256,192,205083,1,4,0:0:0:0:
96,64,205628,6,0,P|128:48|168:48,1,65,2|0,0:2|0:0,0:0:0:0:
192,64,205901,1,0,0:0:0:0:
232,72,206037,1,0,0:0:0:0:
272,64,206174,2,0,B|312:33|355:29|397:61,1,130
336,248,206719,2,0,P|320:184|344:112,1,130,2|0,0:2|0:0,0:0:0:0:
224,192,207265,6,0,P|187:223|144:240,3,86.6666666666667,0|0|0|2,0:0|0:0|0:0|0:2,0:0:0:0:
312,344,208083,1,0,0:0:0:0:
432,192,208356,1,0,0:0:0:0:
312,40,208628,1,0,0:0:0:0:
184,192,208901,2,0,P|104:192|128:104,1,195,2|0,0:2|0:0,0:0:0:0:
160,88,209446,1,4,0:0:0:0:
256,328,209992,6,0,P|320:328|392:296,1,130,2|0,0:2|0:0,0:0:0:0:
408,272,210401,1,0,0:0:0:0:
448,272,210537,2,0,P|448:200|432:144,1,130
264,32,211083,2,0,P|265:86|288:160,1,130,2|2,0:2|0:2,0:0:0:0:
320,184,211492,2,0,P|336:224|336:264,1,65,0|4,0:0|0:0,0:0:0:0:
320,264,213810,5,4,0:0:0:0:
200,112,214083,1,0,0:0:0:0:
392,144,214356,2,0,P|384:120|344:96,2,65
288,224,214901,2,0,P|267:247|264:280,2,65
256,96,215446,1,0,0:0:0:0:
416,272,215719,1,0,0:0:0:0:
176,296,215992,54,0,P|152:320|144:360,1,65
152,230,216265,2,0,P|128:208|80:192,1,65
216,200,216537,6,0,P|240:176|256:128,1,65
240,264,216810,2,0,P|264:288|312:304,1,65
297,219,217083,6,0,P|327:198|343:174,1,65
272,62,217356,2,0,P|295:94|319:108,1,65
428,32,217628,6,0,P|399:54|383:78,1,65
452,187,217901,2,0,P|431:158|407:142,1,65
152,192,218174,5,4,0:0:0:0:
304,320,218446,1,0,0:0:0:0:
432,312,218719,2,0,P|464:328|480:360,2,65
344,208,219265,2,0,P|323:185|320:152,2,65
463,167,219810,1,0,0:0:0:0:
304,320,220083,1,0,0:0:0:0:
120,204,220356,21,0,0:0:0:0:
94,173,220492,1,0,0:0:0:0:
83,134,220628,1,0,0:0:0:0:
216,128,220901,1,0,0:0:0:0:
352,104,221174,1,0,0:0:0:0:
336,64,221310,1,0,0:0:0:0:
312,32,221446,1,0,0:0:0:0:
296,208,221719,2,0,L|248:256,1,65
144,184,222128,2,0,L|72:224,2,65
176,168,222537,5,4,0:0:0:0:
408,168,222810,1,0,0:0:0:0:
184,96,223083,2,0,P|155:79|136:32,2,65
376,232,223628,2,0,P|406:250|424:296,2,65
103,132,224174,1,0,0:0:0:0:
455,196,224446,1,0,0:0:0:0:
296,312,224719,5,0,0:0:0:0:
256,320,224856,1,0,0:0:0:0:
216,312,224992,1,0,0:0:0:0:
144,192,225265,21,0,0:0:0:0:
154,155,225401,1,0,0:0:0:0:
186,134,225537,5,0,0:0:0:0:
224,136,225674,1,0,0:0:0:0:
253,162,225810,5,0,0:0:0:0:
283,186,225946,1,0,0:0:0:0:
321,184,226083,5,0,0:0:0:0:
354,164,226219,1,0,0:0:0:0:
368,128,226356,5,0,0:0:0:0:
368,128,226628,1,0,0:0:0:0:
144,192,226901,5,4,0:0:0:0:
384,192,227174,1,0,0:0:0:0:
256,128,227446,2,0,L|312:88,2,65
256,256,227992,2,0,L|312:312,2,65
32,192,228537,1,0,0:0:0:0:
256,192,228810,2,0,L|328:192,1,65
256,192,229083,12,0,231265,0:0:0:0:
