osu file format v12

[General]
AudioFilename: 20 Percent Cooler AlexS.mp3
AudioLeadIn: 0
PreviewTime: 124350
Countdown: 0
SampleSet: None
StackLeniency: 0.7
Mode: 0
LetterboxInBreaks: 1
WidescreenStoryboard: 1

[Editor]
DistanceSpacing: 0.8
BeatDivisor: 4
GridSize: 8

[Metadata]
Title:20 Percent Cooler (Alex S. Remix)
TitleUnicode:20 Percent Cooler (Alex S. Remix)
Artist:Ken Ashcorp
ArtistUnicode:Ken Ashcorp
Creator:p3n
Version:Beginner
Source:
Tags:Rainbow Dash Rarity Pinkie Pie Twilight Sparkle Applejack Spike Fluttershy MLP My Little Pony Friendship is Magic
BeatmapID:279730
BeatmapSetID:106552

[Difficulty]
HPDrainRate:3
CircleSize:3
OverallDifficulty:3
ApproachRate:4
SliderMultiplier:1.3
SliderTickRate:2

[Events]
//Background and Video events
0,0,"BG1.jpg",0,0
//Break Periods
2,74374,81537
//Storyboard Layer 0 (Background)
//Storyboard Layer 1 (Fail)
//Storyboard Layer 2 (Pass)
//Storyboard Layer 3 (Foreground)
//Storyboard Sound Samples
//Background Colour Transformations
3,100,0,0,0

[TimingPoints]
4356,545.454545454546,4,2,0,60,1,0
21810,-100,4,1,0,70,0,0
30537,-100,4,2,0,50,0,0
32719,-100,4,2,0,80,0,0
34901,-100,4,2,0,30,0,0
36946,-100,4,2,0,5,0,0
39265,-100,4,1,0,70,0,1
56446,-100,4,1,0,70,0,0
56719,-100,4,1,0,70,0,1
74174,-100,4,2,0,60,0,0
82901,-100,4,3,0,60,0,0
91628,-100,4,1,0,70,0,0
109083,-100,4,2,0,60,0,0
125992,-100,4,1,0,100,0,0
126537,-100,4,1,0,70,0,1
126674,-100,4,1,0,70,0,0
143992,-100,4,1,0,70,0,1
161446,-100,4,3,0,60,0,0
178901,-100,4,1,0,70,0,1
179037,-100,4,1,0,70,0,0
194174,-100,4,2,0,40,0,0
196356,-100,4,1,0,70,0,1
196492,-100,4,1,0,70,0,0
213810,-100,4,1,0,85,0,1
231265,-200,4,2,0,40,0,0

[Colours]
Combo1 : 166,0,166
Combo2 : 1,180,248
Combo3 : 145,251,0
Combo4 : 255,241,119
Combo5 : 234,112,0
Combo6 : 249,0,37

[HitObjects]
155,168,4356,2,0,P|187:112|256:88,2,130,4|0|0,1:0|0:0|0:0,0:0:0:0:
256,192,5992,1,0,0:0:0:0:
357,216,6537,2,0,P|325:272|245:296,2,130
256,192,8174,1,0,0:0:0:0:
312,104,8719,6,0,L|440:144,1,130,2|0,1:2|0:0,0:0:0:0:
436,241,9810,2,0,L|312:280,1,130
200,280,10901,2,0,L|75:241,1,130
75,142,11992,2,0,L|200:104,1,130
304,96,13083,6,0,P|312:168|368:208,1,130,4|2,0:0|0:0,0:0:0:0:
457,203,14174,1,0,0:0:0:0:
400,288,14719,1,2,0:0:0:0:
296,288,15265,2,0,L|160:288,1,130,0|2,0:0|0:0,0:0:0:0:
120,200,16356,2,0,L|256:200,1,130,0|2,0:0|0:0,0:0:0:0:
312,120,17446,6,0,P|360:192|312:280,2,195,4|0|2,1:0|0:0|0:0,0:0:0:0:
256,192,19628,12,4,21810,0:0:0:0:
256,72,22901,5,0,0:0:0:0:
256,175,23446,1,0,0:0:0:0:
336,240,23992,2,0,P|264:288|176:240,2,195
256,176,26174,5,4,0:1:0:0:
197,90,26719,2,0,P|253:66|317:90,2,130
256,176,28356,2,0,B|296:216|256:264|256:264|216:312|256:352,2,195
256,72,30537,6,0,B|316:104|380:72|380:72|348:136|380:200|380:200|408:264|352:328,1,390,4|0,0:0|0:0,0:0:0:0:
256,312,32719,2,0,B|196:280|132:312|132:312|164:248|132:184|132:184|104:120|160:56,1,390,0|0,0:3|0:0,0:0:0:0:
256,192,34901,12,0,36946,0:0:0:0:
104,88,39265,6,0,L|160:144,1,65,4|0,0:0|0:0,0:0:0:0:
224,160,39810,2,0,P|296:160|360:136,1,130
440,200,40901,2,0,L|384:256,1,65
338,301,41446,2,0,B|290:349|290:349|250:301|250:301|202:349|202:349|162:301|162:301|114:349|114:349|74:301,1,390
74,197,43628,6,0,L|130:141,1,65,4|0,0:0|0:0,0:0:0:0:
176,96,44174,2,0,P|232:128|304:128,1,130
400,112,45265,2,0,L|400:40,1,65
479,48,45810,2,0,L|479:183,1,130
408,256,46901,2,0,L|336:336,2,97.5
352,200,47992,6,0,P|304:152|240:136,1,130,4|0,0:0|0:0,0:0:0:0:
145,167,49083,2,0,P|179:221|240:240,1,130,0|0,0:0|0:0,0:0:0:0:
248,136,50174,2,0,B|304:136|357:198|357:198|328:272|360:320|360:320|456:224,1,390
456,128,52356,6,0,B|392:56|320:16|224:16,1,260,4|0,0:0|0:0,0:0:0:0:
128,16,53992,1,0,0:0:0:0:
72,104,54537,1,0,0:0:0:0:
128,192,55083,2,0,P|104:240|96:296,2,97.5
172,127,56174,2,0,P|192:104|224:80,1,65
296,88,56719,5,4,0:0:0:0:
312,192,57265,1,0,0:0:0:0:
256,280,57810,2,0,P|232:312|224:344,2,65
355,304,58901,2,0,B|429:275|429:206|429:206|354:235|311:191|311:191|386:163|383:87,1,390
280,88,61083,6,0,L|200:88,1,65,4|0,0:0|0:0,0:0:0:0:
136,88,61628,2,0,P|119:150|68:201,1,130
75,301,62719,2,0,L|131:357,1,65
181,293,63265,2,0,P|233:253|306:239,1,130
400,240,64356,2,0,L|472:320,2,97.5
341,185,65446,6,0,P|275:140|211:132,1,130,4|0,0:0|0:0,0:0:0:0:
122,131,66537,1,0,0:0:0:0:
122,235,67083,1,0,0:0:0:0:
225,235,67628,2,0,B|281:235|334:173|334:173|305:99|337:51|337:51|433:147,1,390
432,256,69810,6,0,B|368:328|304:344,1,130,4|0,0:0|0:0,0:0:0:0:
224,339,70901,1,0,0:0:0:0:
224,235,71446,2,0,L|224:152,1,65
256,192,71992,12,4,74174,0:0:0:0:
80,184,82901,6,0,P|104:128|160:80,1,130,8|8,0:0|0:0,0:0:0:0:
256,112,83992,2,0,P|304:80|360:72,2,97.5,8|8|8,0:0|0:0|0:0,0:0:0:0:
200,168,85083,2,0,P|180:232|190:296,1,130,8|8,0:0|0:0,0:0:0:0:
294,284,86174,2,0,P|327:304|384:313,2,97.5,8|8|8,0:0|0:0|0:0,0:0:0:0:
277,207,87265,6,0,P|216:168|144:160,1,130,8|8,0:0|0:0,0:0:0:0:
66,212,88356,2,0,P|97:249|158:265,1,97.5,8|8,0:0|0:0,0:0:0:0:
256,280,89174,2,0,L|256:360,1,65,8|8,0:0|0:0,0:0:0:0:
400,72,91083,1,2,0:0:0:0:
296,72,91628,6,0,P|312:128|371:172,1,130,4|0,0:0|0:0,0:0:0:0:
344,272,92719,2,0,P|376:280|424:256,2,65
256,216,93810,1,0,0:0:0:0:
160,256,94356,2,0,P|168:160|248:112,1,195
320,144,95446,2,0,L|368:96,1,65
424,152,95992,6,0,L|328:248,1,130
256,320,97083,1,0,0:0:0:0:
184,248,97628,2,0,L|136:200,1,65
81,145,98174,2,0,B|104:112|180:106|183:133|262:212|262:212|296:125|255:49,1,390
360,48,100356,6,0,B|396:143|396:143|355:143,1,130,4|0,0:0|0:0,0:0:0:0:
263,143,101446,2,0,B|299:238|299:238|326:238,1,130
432,240,102537,1,0,0:0:0:0:
376,328,103083,2,0,L|448:328,2,65
272,328,104174,1,0,0:0:0:0:
168,328,104719,5,0,0:0:0:0:
96,256,105265,2,0,P|73:180|82:119,2,130
184,208,106901,2,0,P|176:160|200:104,2,97.5,4|0|0,0:0|0:0|0:0,0:0:0:0:
248,256,107992,2,0,P|279:268|304:288,1,65
479,182,109083,6,0,B|415:182|415:182|359:214,1,130,4|0,0:0|0:0,0:0:0:0:
304,304,110174,2,0,B|256:256|256:256|256:184,1,130
339,130,111265,2,0,P|296:96|152:192,1,260
256,192,112901,1,0,0:0:0:0:
152,192,113446,5,0,0:0:0:0:
359,192,114537,1,0,0:0:0:0:
256,192,115083,1,0,0:0:0:0:
359,191,115628,2,0,P|268:292|168:242,1,260
104,168,117265,1,0,0:0:0:0:
136,64,117810,6,0,B|200:64|200:64|256:96,1,130
312,184,118901,2,0,B|248:184|248:184|192:216,1,130
120,304,119992,2,0,B|184:304|184:304|232:352|232:352|296:352|296:352|344:304,1,260
416,232,121628,1,0,0:0:0:0:
342,158,122174,22,0,L|246:62,2,130
416,232,123810,1,0,0:0:0:0:
342,305,124356,2,0,B|280:344|208:336|152:296|128:232|128:232|150:204|158:165|150:131|133:110,1,390,0|0,0:0|1:0,0:0:0:0:
45,165,126537,37,4,0:0:0:0:
118,238,127083,1,2,0:2:0:0:
191,164,127628,1,0,0:0:0:0:
264,237,128174,1,2,0:2:0:0:
337,163,128719,2,0,L|337:27,1,130,0|2,0:0|0:2,0:0:0:0:
437,58,129810,2,0,L|437:194,1,130,0|2,0:0|0:2,0:0:0:0:
361,260,130901,6,0,L|289:260,1,65,4|0,0:0|0:0,0:0:0:0:
217,260,131446,2,0,P|177:252|129:212,2,97.5,2|0|0,0:2|0:0|0:0,0:0:0:0:
256,192,132537,1,2,0:2:0:0:
256,192,133083,12,4,135265,0:0:0:0:
104,120,136356,6,0,P|176:136|208:192,1,130
112,232,137446,2,0,P|240:280|312:184,1,260
310,95,139083,1,0,0:0:0:0:
208,128,139628,6,0,P|192:160|160:184,1,65,4|0,0:0|0:0,0:0:0:0:
112,232,140174,2,0,P|240:280|312:184,1,260
331,124,141537,2,0,P|341:91|365:67,1,65,0|4,0:0|0:0,0:0:0:0:
408,64,143992,6,0,L|352:120,1,65,4|0,0:0|0:0,0:0:0:0:
288,136,144537,2,0,P|224:120|152:144,1,130
72,200,145628,2,0,L|128:256,1,65
174,301,146174,2,0,B|222:349|222:349|262:301|262:301|310:349|310:349|350:301|350:301|398:349|398:349|438:301,1,390
438,197,148356,6,0,L|382:141,1,65,4|0,0:0|0:0,0:0:0:0:
336,96,148901,2,0,P|280:128|208:128,1,130
112,112,149992,2,0,L|112:32,1,65
33,48,150537,2,0,L|33:183,1,130
104,256,151628,2,0,L|176:336,2,97.5
160,200,152719,6,0,P|208:152|272:136,1,130,4|0,0:0|0:0,0:0:0:0:
367,168,153810,2,0,P|333:222|272:240,1,130,0|0,0:0|0:0,0:0:0:0:
264,136,154901,2,0,B|208:136|155:198|155:198|184:272|152:320|152:320|56:224,1,390
56,128,157083,6,0,B|120:56|192:16|288:16,1,260,4|0,0:0|0:0,0:0:0:0:
288,120,158719,1,0,0:0:0:0:
352,200,159265,1,2,0:2:0:0:
288,288,159810,2,0,P|344:312|392:304,2,97.5
218,251,160901,1,0,0:0:0:0:
128,200,161446,6,0,P|128:136|168:72,1,130,8|8,0:0|0:0,0:0:0:0:
256,112,162537,2,0,P|304:80|360:72,2,97.5,8|8|8,0:0|0:0|0:0,0:0:0:0:
200,168,163628,2,0,P|180:232|190:296,1,130,8|8,0:0|0:0,0:0:0:0:
294,284,164719,2,0,P|327:304|384:313,2,97.5,8|8|8,0:0|0:0|0:0,0:0:0:0:
280,206,165810,6,0,P|216:168|144:160,1,130,8|8,0:0|0:0,0:0:0:0:
67,209,166901,2,0,P|100:246|166:258,1,97.5,8|8,0:0|0:0,0:0:0:0:
256,280,167719,2,0,L|304:232,1,65,8|8,0:0|0:0,0:0:0:0:
408,248,168537,1,8,0:0:0:0:
360,152,169083,2,0,P|309:134|256:144,2,97.5,8|8|8,0:0|0:0|0:0,0:0:0:0:
440,152,170174,5,8,0:0:0:0:
408,248,170719,2,0,P|392:280|360:312,1,65,8|0,0:0|0:0,0:0:0:0:
304,344,171265,2,0,P|253:362|200:352,2,97.5,8|8|8,0:0|0:0|0:0,0:0:0:0:
304,264,172356,2,0,P|304:200|256:136,1,130,8|8,0:0|0:0,0:0:0:0:
168,112,173446,2,0,P|168:176|208:232,1,130,0|0,0:0|2:0,0:0:0:0:
256,328,174537,5,8,1:3:0:0:
320,248,175083,1,8,1:3:0:0:
256,168,175628,1,8,1:3:0:0:
320,88,176174,1,4,1:3:0:0:
256,192,176719,12,4,178901,0:0:0:0:
312,80,179719,5,0,0:0:0:0:
265,144,179992,2,0,P|208:192|208:272,1,130
312,248,181083,2,0,P|363:192|358:111,1,130
390,64,181901,1,0,0:0:0:0:
312,80,182174,2,0,P|253:57|189:81,1,130
80,184,183265,6,0,P|104:208|136:224,1,65,4|0,0:0|0:0,0:0:0:0:
230,223,184083,1,0,0:0:0:0:
302,193,184356,2,0,P|360:216|448:184,1,130
368,112,185446,2,0,L|248:64,1,130
216,160,186537,2,0,L|72:104,1,130
32,192,187628,6,0,P|51:257|98:314,1,130,4|0,0:0|0:0,0:0:0:0:
167,317,188446,1,0,0:0:0:0:
216,256,188719,2,0,P|234:198|290:158,1,130
320,256,189810,2,0,P|376:288|448:296,1,130
495,241,190628,1,0,0:0:0:0:
470,166,190901,2,0,P|408:152|352:104,1,130
264,64,191992,6,0,L|144:112,1,130,4|0,0:0|0:0,0:0:0:0:
224,184,193083,2,0,L|368:240,1,130
345,309,193901,2,0,L|275:338,1,65,2|4,0:2|0:0,0:0:0:0:
464,168,196356,37,4,0:0:0:0:
391,241,196901,1,2,0:2:0:0:
318,167,197446,1,0,0:0:0:0:
245,240,197992,1,2,0:2:0:0:
168,168,198537,2,0,L|168:32,1,130,0|2,0:0|0:2,0:0:0:0:
68,68,199628,2,0,L|68:204,1,130,0|2,0:0|0:2,0:0:0:0:
152,259,200719,6,0,L|224:259,1,65,4|0,0:0|0:0,0:0:0:0:
296,259,201265,2,0,P|336:251|384:211,2,97.5,2|0|0,0:2|0:0|0:0,0:0:0:0:
256,192,202356,1,2,0:2:0:0:
256,192,202901,12,4,205083,0:0:0:0:
408,120,206174,6,0,P|336:136|304:192,1,130,0|2,0:0|0:2,0:0:0:0:
400,232,207265,2,0,P|272:280|200:184,1,260
202,95,208901,1,2,0:2:0:0:
304,88,209446,6,0,P|304:128|272:160,1,65,4|0,0:0|0:0,0:0:0:0:
235,203,209992,2,0,P|232:320|360:328,1,260,2|2,0:2|0:2,0:0:0:0:
406,279,211356,2,0,P|412:232|404:208,1,65
256,104,213810,5,4,0:0:0:0:
200,192,214356,1,0,0:0:0:0:
256,280,214901,2,0,P|280:312|288:344,2,65
157,304,215992,2,0,B|83:275|83:206|83:206|158:235|201:191|201:191|126:163|129:87,1,390
232,88,218174,6,0,L|312:88,1,65,4|0,0:0|0:0,0:0:0:0:
376,88,218719,2,0,P|393:150|444:201,1,130
437,301,219810,2,0,L|381:357,1,65
331,293,220356,2,0,P|279:253|206:239,1,130
112,240,221446,2,0,L|40:320,2,97.5
171,185,222537,6,0,P|237:140|301:132,1,130,4|0,0:0|0:0,0:0:0:0:
390,131,223628,1,0,0:0:0:0:
390,235,224174,1,0,0:0:0:0:
287,235,224719,2,0,B|231:235|178:173|178:173|207:99|175:51|175:51|79:147,1,390
80,256,226901,6,0,B|144:328|208:344,1,130,4|0,0:0|0:0,0:0:0:0:
288,339,227992,1,0,0:0:0:0:
288,235,228537,2,0,L|288:152,1,65
256,192,229083,12,0,231265,0:0:0:0:
