osu file format v12

[General]
AudioFilename: 20 Percent Cooler AlexS.mp3
AudioLeadIn: 0
PreviewTime: 124350
Countdown: 0
SampleSet: Soft
StackLeniency: 0.7
Mode: 0
LetterboxInBreaks: 1
WidescreenStoryboard: 1

[Editor]
DistanceSpacing: 1
BeatDivisor: 4
GridSize: 8

[Metadata]
Title:20 Percent Cooler (Alex S. Remix)
TitleUnicode:20 Percent Cooler (Alex S. Remix)
Artist:Ken Ashcorp
ArtistUnicode:Ken Ashcorp
Creator:p3n
Version:Advanced
Source:
Tags:Rainbow Dash Rarity Pinkie Pie Twilight Sparkle Applejack Spike Fluttershy MLP My Little Pony Friendship is Magic
BeatmapID:279729
BeatmapSetID:106552

[Difficulty]
HPDrainRate:4
CircleSize:4
OverallDifficulty:5
ApproachRate:6
SliderMultiplier:1.9
SliderTickRate:2

[Events]
//Background and Video events
0,0,"BG1.jpg",0,0
//Break Periods
2,74374,81537
//Storyboard Layer 0 (Background)
//Storyboard Layer 1 (Fail)
//Storyboard Layer 2 (Pass)
//Storyboard Layer 3 (Foreground)
//Storyboard Sound Samples
//Background Colour Transformations
3,100,0,0,0

[TimingPoints]
4356,545.454545454546,4,2,0,60,1,0
21810,-100,4,1,0,70,0,0
30537,-100,4,2,0,30,0,0
31628,-100,4,2,0,60,0,0
32719,-100,4,2,0,90,0,0
33810,-100,4,2,0,100,0,0
34901,-100,4,2,0,30,0,0
36946,-100,4,2,0,5,0,0
39265,-100,4,1,0,70,0,1
56446,-100,4,1,0,70,0,0
56719,-100,4,1,0,70,0,1
74174,-100,4,2,0,60,0,0
82901,-100,4,3,0,60,0,0
91628,-100,4,1,0,70,0,0
109083,-100,4,2,0,60,0,0
125446,-100,4,1,0,60,0,0
125992,-100,4,1,0,100,0,0
126537,-100,4,1,0,70,0,1
126674,-100,4,1,0,70,0,0
143992,-100,4,1,0,70,0,1
161446,-100,4,3,0,60,0,0
174537,-100,4,1,0,60,0,0
174810,-100,4,1,0,50,0,0
175356,-100,4,1,0,70,0,0
175901,-100,4,1,0,80,0,0
176719,-100,4,1,0,60,0,0
178901,-100,4,1,0,70,0,1
179037,-100,4,1,0,70,0,0
194174,-100,4,2,0,40,0,0
196356,-100,4,1,0,70,0,1
196492,-100,4,1,0,70,0,0
213810,-100,4,1,0,85,0,1
231265,-200,4,2,0,40,0,0

[Colours]
Combo1 : 166,0,166
Combo2 : 1,180,248
Combo3 : 145,251,0
Combo4 : 255,241,119
Combo5 : 234,112,0
Combo6 : 249,0,37

[HitObjects]
112,208,4356,2,0,P|136:160|176:128,1,95,4|0,1:0|0:0,0:0:0:0:
256,96,4901,1,0,0:0:0:0:
256,288,5446,1,0,0:0:0:0:
400,176,5992,2,0,P|376:224|336:256,1,95,0|0,0:0|0:0,0:0:0:0:
256,288,6537,1,0,0:0:0:0:
88,192,7083,6,0,P|88:144|104:96,1,95
160,192,7628,2,0,P|168:152|208:104,1,95
232,192,8174,2,0,L|336:192,1,95
424,192,8719,5,2,1:2:0:0:
256,96,9265,1,0,0:0:0:0:
256,288,9810,1,0,0:0:0:0:
424,192,10356,2,0,L|328:192,1,95
233,192,10901,1,0,0:0:0:0:
56,120,11446,6,0,L|144:64,1,95
104,192,11992,2,0,L|216:192,1,95
56,264,12537,2,0,L|144:320,1,95
256,328,13083,6,0,P|320:256|408:224,1,190,4|2,0:0|0:0,0:0:0:0:
473,156,13901,1,0,0:0:0:0:
400,96,14174,2,0,L|328:24,1,95
263,95,14719,2,0,L|196:28,1,95,2|0,0:0|0:0,0:0:0:0:
128,88,15265,2,0,P|96:128|88:176,2,95,0|2|2,0:0|0:0|0:0,0:0:0:0:
196,28,16083,1,0,0:0:0:0:
264,96,16356,2,0,P|344:152|440:152,1,190,0|2,0:0|0:0,0:0:0:0:
488,72,17174,1,0,0:0:0:0:
392,56,17446,6,0,P|336:144|336:232,1,190,4|2,1:0|0:0,0:0:0:0:
384,312,18265,1,0,0:0:0:0:
288,312,18537,2,0,L|184:312,1,95
147,228,19083,2,0,L|242:228,1,95,2|0,0:0|0:0,0:0:0:0:
256,192,19628,12,4,21810,0:0:0:0:
256,112,22356,6,0,P|302:129|360:120,2,95
160,128,23174,1,0,0:0:0:0:
104,208,23446,1,0,0:0:0:0:
256,328,23992,2,0,B|296:264|376:264|376:264|408:208,1,190
440,136,24810,1,0,0:0:0:0:
352,96,25083,2,0,P|256:80|160:96,2,190,0|0|4,0:0|0:0|0:2,0:0:0:0:
256,256,26719,6,0,L|161:256,1,95
104,336,27265,2,0,P|61:261|104:176,1,190
256,80,28356,2,0,B|352:80|352:80|352:128|384:160|424:168,1,190
448,80,29174,1,0,0:0:0:0:
496,160,29446,2,0,P|455:238|349:247,1,190
216,144,30537,6,0,B|176:128|120:144|120:144|64:160|24:144,1,190,4|0,0:0|0:0,0:0:0:0:
160,280,31628,6,0,B|200:296|256:280|256:280|312:264|352:280,1,190,0|0,0:0|0:0,0:0:0:0:
480,144,32719,6,0,B|440:128|384:144|384:144|328:160|288:144,1,190,0|0,0:0|0:0,0:0:0:0:
160,280,33810,6,0,B|200:296|256:280|256:280|312:264|352:280,1,190,0|0,0:0|0:0,0:0:0:0:
256,192,34901,12,8,36946,0:0:0:0:
128,88,39265,5,4,0:0:0:0:
128,88,39537,1,0,0:0:0:0:
235,90,39810,2,0,P|272:64|320:64,1,95
304,160,40356,2,0,B|264:208|192:192|192:192|128:176|120:200,1,190
64,264,41174,1,0,0:0:0:0:
128,336,41446,6,0,L|224:288,1,95
296,336,41992,2,0,L|392:288,1,95
464,248,42537,2,0,L|368:200,1,95
296,248,43083,2,0,L|200:200,1,95
128,160,43628,5,4,0:0:0:0:
128,160,43901,1,0,0:0:0:0:
32,160,44174,2,0,P|72:80|184:80,2,190
128,160,45537,1,0,0:0:0:0:
224,160,45810,6,0,P|184:240|91:250,1,190
48,336,46628,1,0,0:0:0:0:
144,352,46901,2,0,P|224:328|288:264,2,142.5
112,264,47992,5,4,0:0:0:0:
112,264,48265,1,0,0:0:0:0:
184,200,48537,2,0,L|256:136,1,95
328,200,49083,2,0,L|400:136,2,95
256,264,49901,1,0,0:0:0:0:
327,335,50174,6,0,P|427:353|486:285,1,190
472,200,50992,1,0,0:0:0:0:
389,256,51265,2,0,P|378:161|460:101,1,190
256,56,52356,5,4,0:0:0:0:
256,56,52628,1,0,0:0:0:0:
208,136,52901,2,0,L|152:216,1,95
256,216,53446,2,0,L|312:304,2,95
208,136,54265,1,0,0:0:0:0:
160,56,54537,5,0,0:0:0:0:
256,216,55083,2,0,P|280:264|288:360,2,142.5
208,136,56174,1,0,0:0:0:0:
304,136,56446,1,0,0:0:0:0:
256,56,56719,5,4,0:0:0:0:
256,56,56992,1,0,0:0:0:0:
208,136,57265,2,0,P|216:184|264:224,1,95
344,222,57810,2,0,P|328:278|280:310,2,95
304,136,58628,1,0,0:0:0:0:
344,48,58901,6,0,P|242:64|209:145,1,190
246,222,59719,1,0,0:0:0:0:
304,136,59992,2,0,P|348:222|282:302,1,190
208,312,60810,1,0,0:0:0:0:
152,240,61083,5,4,0:0:0:0:
152,240,61356,1,0,0:0:0:0:
186,138,61628,2,0,P|226:113|247:67,1,95
144,49,62174,2,0,B|87:80|87:140|87:140|87:175|69:201|36:204,1,190
49,300,62992,1,0,0:0:0:0:
141,332,63265,6,0,P|227:303|272:208,1,190
314,132,64083,1,0,0:0:0:0:
357,214,64356,2,0,P|385:288|448:341,2,142.5
408,136,65446,5,4,0:0:0:0:
408,136,65719,1,0,0:0:0:0:
390,42,65992,2,0,B|352:45|326:71|318:98|318:98|222:98,1,190
129,98,66810,1,0,0:0:0:0:
33,98,67083,2,0,P|40:144|88:184,1,95
168,192,67628,6,0,P|221:256|317:240,1,190
261,160,68446,1,0,0:0:0:0:
360,149,68719,2,0,P|413:200|389:304,1,190
200,344,69810,6,0,L|104:296,1,95,4|0,0:0|0:0,0:0:0:0:
200,256,70356,2,0,L|288:216,1,95
200,168,70901,2,0,L|104:120,2,95
288,216,71719,1,0,0:0:0:0:
256,192,71992,12,4,74174,0:0:0:0:
256,192,82628,53,2,0:2:0:0:
304,112,82901,2,0,P|352:184|304:272,1,190,8|8,0:0|0:0,0:0:0:0:
208,112,83992,2,0,P|160:184|184:248,2,142.5,8|8|8,0:0|0:0|0:0,0:0:0:0:
304,88,85083,1,8,0:0:0:0:
398,112,85356,1,0,0:0:0:0:
464,184,85628,2,0,P|416:216|368:208,1,95,8|0,0:0|0:0,0:0:0:0:
398,112,86174,2,0,P|320:120|288:208,2,142.5,8|8|8,0:0|0:0|0:0,0:0:0:0:
381,213,87265,6,0,P|306:285|229:261,1,190,8|8,0:0|0:0,0:0:0:0:
192,176,88083,1,0,0:0:0:0:
152,88,88356,2,0,P|96:144|104:216,1,142.5,8|8,0:0|0:0,0:0:0:0:
232,264,89174,1,8,0:0:0:0:
232,264,89446,1,8,0:0:0:0:
320,88,91083,5,2,1:2:0:0:
128,88,91628,54,0,B|120:144|144:184|144:184|192:192|224:240,1,190,4|0,0:0|0:0,0:0:0:0:
360,360,92719,2,0,P|400:320|408:272,1,95
408,192,93265,1,0,0:0:0:0:
219,232,93810,2,0,P|189:194|127:173,1,95
128,272,94356,2,0,P|200:328|304:288,1,190
314,212,95174,1,0,0:0:0:0:
344,120,95446,2,0,P|384:96|448:104,1,95
408,192,95992,6,0,P|384:280|272:304,1,190
200,312,96810,1,0,0:0:0:0:
120,256,97083,2,0,L|8:256,2,95
200,200,97901,1,0,0:0:0:0:
280,152,98174,2,0,L|376:152,2,95
200,104,98992,1,0,0:0:0:0:
120,48,99265,2,0,L|8:48,2,95
317,43,100356,6,0,P|413:83|429:171,1,190,4|0,0:0|0:0,0:0:0:0:
337,142,101174,1,0,0:0:0:0:
256,192,101446,2,0,P|274:268|370:308,1,190
433,127,102537,1,0,0:0:0:0:
256,192,103083,2,0,P|192:200|152:232,2,95
344,232,103901,1,0,0:0:0:0:
432,272,104174,1,0,0:0:0:0:
256,336,104719,5,0,0:0:0:0:
168,296,104992,1,0,0:0:0:0:
88,244,105265,2,0,B|48:204|64:156|64:156|80:108|40:68,2,190
168,200,106628,1,2,0:2:0:0:
256,160,106901,2,0,P|304:128|336:32,2,142.5,4|0|0,0:0|0:0|0:0,0:0:0:0:
256,256,107992,2,0,P|287:268|336:320,1,95
72,192,109083,54,0,P|92:148|127:111,1,95,4|0,0:0|0:0,0:0:0:0:
137,222,109628,2,0,P|166:182|210:164,1,95
228,263,110174,2,0,P|270:269|321:250,1,95
329,157,110719,2,0,P|405:219|385:321,1,190,2|2,0:0|0:0,0:0:0:0:
308,347,111537,5,0,0:0:0:0:
217,307,111810,1,0,0:0:0:0:
128,352,112083,1,0,0:0:0:0:
48,296,112356,2,0,P|88:240|168:216,2,142.5,4|4|0,0:3|0:3|0:0,0:0:0:0:
128,352,113446,5,0,1:0:0:0:
312,304,113992,2,0,P|352:280|376:224,1,95
280,208,114537,2,0,P|180:190|135:114,1,190,0|2,0:0|0:0,0:0:0:0:
144,24,115356,2,0,P|88:32|56:72,1,95,0|2,0:0|0:0,0:0:0:0:
136,120,115901,5,0,0:0:0:0:
208,176,116174,1,0,0:0:0:0:
280,120,116446,1,0,0:0:0:0:
352,176,116719,2,0,P|440:152|488:96,2,142.5,4|4|0,0:3|0:3|0:0,0:0:0:0:
280,232,117810,6,0,P|200:288|104:288,1,190,0|0,1:0|0:0,0:0:0:0:
64,208,118628,1,0,0:0:0:0:
159,204,118901,2,0,P|208:290|293:334,1,190,0|2,0:0|0:2,0:0:0:0:
384,346,119719,2,0,P|440:330|464:298,1,95,0|2,0:0|0:2,0:0:0:0:
464,208,120265,6,0,L|464:104,1,95
376,152,120810,2,0,L|336:64,2,95
272,136,121628,2,0,L|176:96,1,95
320,224,122174,22,0,L|320:328,1,95,0|0,1:0|0:0,0:0:0:0:
232,280,122719,2,0,L|192:368,1,95
128,296,123265,2,0,L|32:336,2,95
168,208,124083,1,0,0:0:0:0:
72,216,124356,6,0,P|96:144|264:184,1,285
288,272,125446,6,0,L|296:328,2,47.5
360,208,125992,2,0,L|432:224,2,47.5
320,120,126537,6,0,P|296:80|232:48,1,95,4|0,0:0|0:0,0:0:0:0:
160,40,127083,1,2,0:2:0:0:
264,200,127628,6,0,P|224:175|152:177,1,95
80,192,128174,1,2,0:2:0:0:
248,296,128719,6,0,P|201:291|137:322,1,95
72,352,129265,1,2,0:2:0:0:
24,272,129537,1,0,0:0:0:0:
80,192,129810,2,0,L|152:96,2,95,0|0|2,0:0|0:0|0:2,0:0:0:0:
128,272,130628,1,0,0:0:0:0:
184,192,130901,6,0,B|232:128|232:128|256:96|296:88|336:104,2,190,4|2|0,0:0|0:2|0:0,0:0:0:0:
232,272,132265,1,0,0:0:0:0:
296,192,132537,1,2,0:2:0:0:
352,272,132810,1,0,0:0:0:0:
256,192,133083,12,4,135265,0:0:0:0:
256,112,135810,6,0,P|210:129|152:120,2,95,2|0|0,0:2|0:0|0:0,0:0:0:0:
352,128,136628,1,0,0:0:0:0:
408,208,136901,1,2,0:2:0:0:
244,292,137446,6,0,B|220:212|104:176,1,190,0|2,0:0|0:2,0:0:0:0:
24,232,138265,1,0,0:0:0:0:
104,288,138537,2,0,B|220:251|244:171,2,190,0|0|4,0:0|0:2|0:0,0:0:0:0:
72,96,140174,6,0,P|112:64|168:48,1,95,2|0,0:2|0:0,0:0:0:0:
232,96,140719,2,0,P|280:104|328:144,1,95
344,224,141265,1,2,0:2:0:0:
416,168,141537,1,2,0:2:0:0:
392,75,141810,2,0,P|344:99|312:139,1,95,4|0,0:0|0:0,0:0:0:0:
344,224,142356,2,0,P|304:288|208:320,2,142.5
317,130,143446,2,0,P|296:72|312:24,1,95
391,75,143992,5,4,0:0:0:0:
391,75,144265,1,0,0:0:0:0:
317,130,144537,2,0,L|245:194,1,95
173,130,145083,2,0,L|101:194,2,95
248,72,145901,1,0,0:0:0:0:
327,11,146174,6,0,P|407:62|404:160,1,190
338,207,146992,1,0,0:0:0:0:
316,109,147265,2,0,P|239:171|265:272,1,190
328,304,148083,1,0,0:0:0:0:
240,344,148356,5,4,0:1:0:0:
240,344,148628,1,0,0:0:0:0:
328,304,148901,2,0,P|368:272|384:224,1,95
336,144,149446,2,0,L|280:56,2,95
432,144,150265,1,0,0:0:0:0:
384,224,150537,6,0,L|440:312,2,95
288,224,151356,1,0,0:0:0:0:
336,144,151628,2,0,P|288:88|208:56,2,142.5
384,224,152719,5,4,0:0:0:0:
384,224,152992,1,0,0:0:0:0:
336,304,153265,2,0,P|296:336|248:352,1,95
160,350,153810,2,0,P|119:335|79:303,2,95
208,272,154628,1,0,0:0:0:0:
128,215,154901,6,0,P|209:171|290:214,1,190
208,271,155719,1,0,0:0:0:0:
300,309,155992,2,0,P|365:274|372:165,1,190
208,271,157083,6,0,P|160:304|120:312,1,95,4|0,0:0|0:0,0:0:0:0:
120,216,157628,2,0,P|64:216|24:200,2,95
170,135,158446,1,0,0:0:0:0:
251,184,158719,1,0,0:0:0:0:
208,271,158992,1,0,0:0:0:0:
120,216,159265,6,0,P|80:176|71:125,1,95
170,135,159810,2,0,P|239:106|288:17,2,142.5
71,140,160901,2,0,P|80:88|120:48,1,95
200,40,161446,6,0,P|256:128|336:176,1,190,8|8,0:0|0:0,0:0:0:0:
448,320,162537,2,0,P|384:272|304:248,2,142.5,8|8|8,0:0|0:0|0:0,0:0:0:0:
355,342,163628,2,0,P|392:280|416:152,1,190,8|8,0:0|0:0,0:0:0:0:
320,152,164446,1,0,0:0:0:0:
280,240,164719,2,0,P|232:200|240:104,2,142.5,8|8|8,0:0|0:0|0:0,0:0:0:0:
320,152,165810,6,0,P|377:212|339:321,1,190,8|8,0:0|0:0,0:0:0:0:
260,334,166628,1,0,0:0:0:0:
280,240,166901,2,0,P|224:192|232:120,1,142.5,8|8,0:0|0:0,0:0:0:0:
88,176,167719,2,0,P|76:220|84:268,1,95,8|8,0:0|0:0,0:0:0:0:
144,344,168265,2,0,P|168:360|200:368,2,47.5,0|0|8,0:0|0:0|0:0,0:0:0:0:
176,256,168810,1,0,0:0:0:0:
272,232,169083,2,0,P|323:214|392:128,2,142.5,8|8|8,0:0|0:0|0:0,0:0:0:0:
200,168,170174,6,0,P|152:120|96:104,1,95,8|0,0:0|0:0,0:0:0:0:
120,208,170719,2,0,P|152:248|208:272,1,95,8|0,0:0|0:0,0:0:0:0:
240,352,171265,2,0,P|320:368|392:344,2,142.5,8|8|8,0:0|0:0|0:0,0:0:0:0:
288,272,172356,2,0,P|328:240|336:176,2,95,8|0|8,0:0|0:0|0:0,0:0:0:0:
240,192,173174,1,0,0:0:0:0:
184,272,173446,2,0,P|144:216|160:136,2,142.5,8|8|8,0:0|0:0|0:0,0:0:0:0:
288,272,174537,5,8,0:3:0:0:
384,272,174810,6,0,L|432:272,2,47.5,0|0|8,0:0|0:0|0:3,0:0:0:0:
336,192,175356,6,0,L|360:144,2,47.5,0|0|8,0:0|0:0|0:3,0:0:0:0:
240,192,175901,6,0,L|208:144,2,47.5,0|8|0,0:0|0:3|0:0,0:0:0:0:
192,272,176446,6,0,L|136:272,2,47.5,4|0|0,0:3|0:0|0:0,0:0:0:0:
256,192,176992,12,4,178901,0:0:0:0:
312,160,179719,6,0,P|344:192|352:248,1,95
256,240,180265,2,0,P|224:272|216:328,2,95
312,320,181083,6,0,P|361:335|415:305,1,95
352,240,181628,2,0,P|397:215|414:156,1,95
312,160,182174,2,0,P|327:111|297:57,2,95
256,240,182992,1,0,0:0:0:0:
200,160,183265,53,4,0:0:0:0:
144,240,183537,1,0,0:0:0:0:
312,160,184083,37,0,0:0:0:0:
368,240,184356,2,0,P|416:264|470:247,2,95
424,160,185174,1,0,0:0:0:0:
368,80,185446,2,0,P|416:56|470:73,2,95
312,160,186265,1,0,0:0:0:0:
248,232,186537,2,0,P|216:264|160:272,2,95
312,160,187356,1,0,0:0:0:0:
408,176,187628,6,0,P|384:272|312:344,1,190,4|0,0:0|0:0,0:0:0:0:
232,352,188446,1,0,0:0:0:0:
264,264,188719,2,0,P|272:152|232:80,1,190
160,24,189537,1,0,0:0:0:0:
152,120,189810,6,0,P|144:216|88:288,1,190
40,368,190628,1,0,0:0:0:0:
136,368,190901,2,0,P|184:344|224:288,1,95
304,336,191446,2,0,P|328:288|328:216,1,95
384,168,191992,5,4,0:0:0:0:
288,168,192265,1,0,0:0:0:0:
200,136,192537,2,0,P|230:90|288:80,1,95
360,104,193083,2,0,P|384:192|344:248,2,142.5,0|0|2,0:0|0:0|0:2,0:0:0:0:
336,16,194174,1,4,0:0:0:0:
320,264,196356,6,0,P|296:304|232:336,1,95,4|0,0:0|0:0,0:0:0:0:
160,344,196901,1,2,0:2:0:0:
264,184,197446,6,0,P|224:209|152:207,1,95
80,192,197992,1,2,0:2:0:0:
248,88,198537,6,0,P|201:93|137:62,1,95
72,32,199083,1,2,0:2:0:0:
24,112,199356,1,0,0:0:0:0:
80,192,199628,2,0,L|152:288,2,95,0|0|2,0:0|0:0|0:2,0:0:0:0:
128,112,200446,1,0,0:0:0:0:
184,192,200719,6,0,B|232:256|232:256|256:288|296:296|336:280,2,190,4|2|0,0:0|0:2|0:0,0:0:0:0:
232,112,202083,1,0,0:0:0:0:
296,192,202356,1,2,0:2:0:0:
352,112,202628,1,0,0:0:0:0:
256,192,202901,12,4,205083,0:0:0:0:
256,272,205628,6,0,P|210:255|152:264,2,95,2|0|0,0:2|0:0|0:0,0:0:0:0:
352,256,206446,1,0,0:0:0:0:
408,176,206719,1,2,0:2:0:0:
244,92,207265,6,0,B|220:172|104:208,1,190,0|2,0:0|0:2,0:0:0:0:
24,152,208083,1,0,0:0:0:0:
104,96,208356,2,0,B|220:133|244:213,2,190,0|0|4,0:0|0:2|0:0,0:0:0:0:
72,288,209992,6,0,P|112:320|168:336,1,95,2|0,0:2|0:0,0:0:0:0:
232,288,210537,2,0,P|280:280|328:240,1,95
344,160,211083,1,2,0:2:0:0:
416,216,211356,1,2,0:2:0:0:
392,309,211628,2,0,P|344:285|312:245,1,95,4|0,0:0|0:0,0:0:0:0:
344,160,212174,2,0,P|304:96|208:64,2,142.5
317,254,213265,2,0,P|296:312|312:360,1,95
391,309,213810,5,4,0:0:0:0:
391,309,214083,1,0,0:0:0:0:
317,254,214356,2,0,L|245:190,1,95
173,254,214901,2,0,L|101:190,2,95
248,312,215719,1,0,0:0:0:0:
320,368,215992,6,0,P|412:315|404:224,1,190
338,177,216810,1,0,0:0:0:0:
317,272,217083,2,0,P|239:213|265:112,1,190
328,80,217901,1,0,0:0:0:0:
240,40,218174,5,4,0:1:0:0:
240,40,218446,1,0,0:0:0:0:
328,80,218719,2,0,P|368:112|384:160,1,95
336,240,219265,2,0,L|280:328,2,95
432,240,220083,1,0,0:0:0:0:
384,160,220356,6,0,L|440:72,2,95
288,160,221174,1,0,0:0:0:0:
336,240,221446,2,0,P|288:296|208:328,2,142.5
392,160,222537,5,4,0:0:0:0:
392,160,222810,1,0,0:0:0:0:
336,80,223083,2,0,P|296:48|248:32,1,95
160,34,223628,2,0,P|119:49|79:81,2,95
208,112,224446,1,0,0:0:0:0:
128,169,224719,6,0,P|212:214|293:163,1,190
208,113,225537,1,0,0:0:0:0:
300,75,225810,2,0,P|365:110|370:217,1,190
208,113,226901,6,0,P|160:80|120:72,1,95,4|0,0:0|0:0,0:0:0:0:
120,168,227446,2,0,P|64:168|24:184,2,95
207,113,228265,1,0,0:0:0:0:
280,176,228537,1,0,0:0:0:0:
352,112,228810,1,0,0:0:0:0:
256,192,229083,12,4,231265,0:0:0:0:
