osu file format v12

[General]
AudioFilename: kelly clarkson - my life would suck without you.mp3
AudioLeadIn: 0
PreviewTime: 41957
Countdown: 1
SampleSet: Soft
StackLeniency: 0.7
Mode: 0
LetterboxInBreaks: 1
SkinPreference:Default
WidescreenStoryboard: 0

[Editor]
DistanceSpacing: 1
BeatDivisor: 2
GridSize: 8
TimelineZoom: 1

[Metadata]
Title:My Life Would Suck Without You
TitleUnicode:My Life Would Suck Without You
Artist:Kelly Clarkson
ArtistUnicode:Kelly Clarkson
Creator:GbL
Version:Easy
Source:
Tags:kingcobra52 0_o All I Ever Wanted
BeatmapID:321887
BeatmapSetID:8993

[Difficulty]
HPDrainRate:2
CircleSize:3
OverallDifficulty:1
ApproachRate:3
SliderMultiplier:1.2
SliderTickRate:1

[Events]
//Background and Video events
0,0,"My_Life_Would_Suck_Without_You_by_IceSerenity.jpg",0,0
//Break Periods
2,68640,80242
2,123261,134862
//Storyboard Layer 0 (Background)
//Storyboard Layer 1 (Fail)
//Storyboard Layer 2 (Pass)
//Storyboard Layer 3 (Foreground)
//Storyboard Sound Samples
//Background Colour Transformations
3,100,163,162,255

[TimingPoints]
13820,413.793103448276,4,2,0,85,1,0
41957,-100,4,2,0,85,0,1
68440,-100,4,2,0,85,0,0
96578,-100,4,2,0,85,0,1
123061,-100,4,2,0,85,0,0
136095,-100,4,2,0,45,0,0
152854,-100,4,2,0,100,0,1
177475,-100,4,2,0,10,0,0
177682,-100,4,2,0,20,0,0
177888,-100,4,2,0,30,0,0
178095,-100,4,2,0,40,0,0
178302,-100,4,2,0,50,0,0
178509,-100,4,2,0,60,0,0
178716,-100,4,2,0,70,0,0
178923,-100,4,2,0,80,0,0
179026,-100,4,2,0,80,0,0
179130,-100,4,2,0,90,0,0
179337,-100,4,2,0,100,0,1
179544,-100,4,2,0,100,0,1
205820,-200,4,2,0,100,0,0

[Colours]
Combo1: 10,2,98
Combo2: 112,7,109
Combo3: 216,11,221
SliderBorder: 255,255,255

[HitObjects]
136,80,13820,5,0,0:0:0:0:
376,80,14647,1,2,0:0:0:0:
256,288,15475,2,0,L|256:40,1,240
496,72,17130,6,0,P|296:296|152:192,1,480,2|0,0:0|0:0,0:0:0:0:
24,56,19613,1,0,0:0:0:0:
192,72,20440,6,0,B|40:272,1,240
288,272,22095,2,0,B|434:81,1,240,2|0,0:0|0:0,0:0:0:0:
432,320,23751,5,0,0:0:0:0:
192,320,24578,1,0,0:0:0:0:
48,128,25406,1,4,0:0:0:0:
168,128,25820,1,0,0:0:0:0:
288,128,26233,1,4,0:0:0:0:
336,304,27061,5,2,0:0:0:0:
128,176,27888,1,0,0:0:0:0:
344,64,28716,1,2,0:0:0:0:
336,304,29544,1,0,0:0:0:0:
128,176,30371,5,2,0:0:0:0:
344,64,31199,2,0,B|496:96|504:208|472:312|328:320|240:184,1,480
56,56,33682,5,2,0:0:0:0:
200,184,34509,1,0,0:0:0:0:
440,184,35337,2,0,B|320:184,2,120,2|0|2,0:0|0:0|0:0,0:0:0:0:
224,80,36992,6,0,L|96:80,1,120,0|0,0:0|0:0,0:0:0:0:
160,184,37820,2,0,L|32:184,1,120,2|0,0:0|0:0,0:0:0:0:
104,280,38647,2,0,L|248:280,1,120,2|0,0:0|0:0,0:0:0:0:
344,280,39475,2,0,L|472:280,1,120,2|0,0:0|0:0,0:0:0:0:
456,160,40302,2,0,L|456:32,1,120,2|0,0:0|0:0,0:0:0:0:
26,70,41957,6,0,B|0:139|77:209|166:172|166:172|118:227|125:323|194:359|256:343,3,480,4|0|0|4,0:0|0:0|0:0|0:0,0:0:0:0:
486,70,48578,6,0,B|512:139|435:209|346:172|346:172|394:227|387:323|318:359|256:343,3,480,4|0|0|4,0:0|0:0|0:0|0:0,0:0:0:0:
48,320,55199,5,6,0:0:0:0:
48,64,56026,1,2,0:0:0:0:
288,64,56854,1,2,0:0:0:0:
288,304,57682,1,2,0:0:0:0:
168,304,58095,1,0,0:0:0:0:
232,200,58509,6,0,P|232:56|56:184,1,480,2|0,0:0|0:0,0:0:0:0:
256,192,60992,12,0,68440,0:0:0:0:
416,304,81682,5,0,0:0:0:0:
416,64,82509,1,0,0:0:0:0:
176,64,83337,1,0,0:0:0:0:
176,304,84164,1,0,0:0:0:0:
352,136,84992,5,0,0:0:0:0:
288,304,85613,2,0,L|424:304,2,120,4|4|4,0:0|0:0|0:0,0:0:0:0:
200,144,87061,6,0,P|48:200|104:368,1,360
264,192,89130,1,0,0:0:0:0:
64,328,89957,2,0,P|-18:259|61:188,1,240
232,192,91613,5,2,0:0:0:0:
440,64,92440,1,2,0:0:0:0:
440,304,93268,1,2,0:0:0:0:
320,304,93682,1,0,0:0:0:0:
248,208,94095,2,0,B|120:280,6,120,0|0|0|0|0|0|8,0:0|0:0|0:0|0:0|0:0|0:0|0:0,0:0:0:0:
440,64,97406,5,8,0:0:0:0:
200,64,98233,1,8,0:0:0:0:
424,152,99061,1,8,0:0:0:0:
184,152,99888,1,8,0:0:0:0:
408,240,100716,1,8,0:0:0:0:
168,240,101544,1,4,0:0:0:0:
104,72,103199,6,0,P|112:280|336:248,3,480,4|0|0|4,0:0|0:0|0:0|0:0,0:0:0:0:
360,96,109820,5,4,0:0:0:0:
216,288,110647,1,8,0:0:0:0:
104,80,111475,1,8,0:0:0:0:
308,205,112303,1,8,0:0:0:0:
425,226,112716,1,0,0:0:0:0:
328,296,113130,6,0,P|163:191|344:119,1,480,8|8,0:0|0:0,0:0:0:0:
256,192,115613,12,0,123061,0:0:0:0:
82,59,136302,5,2,0:0:0:0:
138,291,137130,1,0,0:0:0:0:
374,291,137957,1,2,0:0:0:0:
430,59,138785,1,0,0:0:0:0:
280,248,139613,5,2,0:0:0:0:
40,248,140440,1,0,0:0:0:0:
280,248,141268,1,2,0:0:0:0:
432,64,142095,1,0,0:0:0:0:
256,56,142923,6,0,L|256:304,1,240,2|0,0:0|0:0,0:0:0:0:
104,104,144578,2,0,L|104:352,1,240,2|0,0:0|0:0,0:0:0:0:
256,192,146233,12,0,151199,0:0:0:0:
256,192,152854,5,4,0:0:0:0:
472,88,153682,1,0,0:0:0:0:
456,328,154509,1,2,0:0:0:0:
256,192,155337,1,0,0:0:0:0:
456,328,156164,1,2,0:0:0:0:
256,192,156992,1,0,0:0:0:0:
56,320,157820,1,4,0:0:0:0:
408,72,159475,6,0,P|393:285|181:256,3,480,4|0|0|4,0:0|0:0|0:0|0:0,0:0:0:0:
256,192,166096,5,4,0:0:0:0:
64,48,166923,1,2,0:0:0:0:
304,40,167751,1,2,0:0:0:0:
448,232,168579,1,2,0:0:0:0:
328,216,168992,1,0,0:0:0:0:
208,168,169406,6,0,P|208:24|32:152,1,480,2|0,0:0|0:0,0:0:0:0:
256,192,171888,12,0,177268,0:0:0:0:
240,192,177682,6,4,B|288:192,16,30
40,56,180164,6,0,L|40:304,1,240,2|0,0:0|0:0,0:0:0:0:
152,80,181820,2,0,L|152:336,1,240,2|0,0:0|0:0,0:0:0:0:
264,104,183475,2,0,L|264:352,1,240,2|4,0:0|0:0,0:0:0:0:
88,280,185957,6,0,P|103:67|315:96,3,480,4|0|0|4,0:0|0:0|0:0|0:0,0:0:0:0:
256,192,192578,5,4,0:0:0:0:
64,336,193405,1,2,0:0:0:0:
304,344,194233,1,2,0:0:0:0:
448,152,195061,1,2,0:0:0:0:
328,168,195474,1,0,0:0:0:0:
208,144,195888,6,0,P|64:144|192:320,1,480,2|0,0:0|0:0,0:0:0:0:
288,248,197957,2,0,L|440:248,1,120,2|0,0:0|0:0,0:0:0:0:
256,192,198785,12,0,205820,0:0:0:0:
