osu file format v5

[General]
AudioFilename: PathToBorealis.mp3
AudioLeadIn: 0
PreviewTime: -1
Countdown: 1
SampleSet: Normal
StackLeniency: 0.7
Mode: 0
LetterboxInBreaks: 1

[Metadata]
Title:Path to Borealis
Artist:Kelly Bailey
Creator:woozlez
Version:Barnacle
Source:
Tags:

[Difficulty]
HPDrainRate:1
CircleSize:1
OverallDifficulty:1
SliderMultiplier:0.8
SliderTickRate:0.5

[Events]
//Background and Video events
1,0,"PathVideo2.avi"
//Break Periods
2,96761,105777
//Storyboard Layer 0 (Background)
//Storyboard Layer 1 (Failing)
//Storyboard Layer 2 (Passing)
//Storyboard Layer 3 (Foreground)
//Storyboard Sound Samples
//Background Colour Transformations
3,100,163,162,255

[TimingPoints]
17946,555.555555555556,4,1,0,40,1

[Colours]
Combo1 : 220,220,0
Combo2 : 245,153,14
Combo3 : 85,85,85
Combo4 : 63,190,197

[HitObjects]
192,192,17943,5,0
192,96,18779,2,0,B|320:96,1,120,0|0
384,96,20168,5,0
320,160,21001,2,0,B|224:256,1,120
192,192,22390,6,0,B|352:192,1,120,0|0
352,288,24057,2,0,L|256:288,1,80,0|0
192,224,25446,2,0,B|352:224,1,120
320,160,26834,5,0
224,128,27668,1,0
128,96,28501,2,0,B|224:128,1,80
224,224,29890,2,0,B|352:256,1,120
384,224,31279,5,0
320,160,32112,2,0,B|192:256,1,120
192,288,33501,6,4,B|320:288,2,120
192,224,35723,5,0
192,160,36279,1,0
384,224,37946,5,0
384,160,38501,1,0
256,256,39890,2,0,L|288:256,2,20
192,224,40723,5,0
256,224,41279,1,0
320,224,41834,1,4
384,224,42390,2,0,B|448:224,3,40
288,192,44334,6,4,B|320:192,2,20,0|0|0
128,192,46001,6,0,L|128:128,3,40
192,128,47390,2,0,L|256:128,1,40
256,256,48779,6,0,B|288:256,2,20
32,128,51279,5,0
96,128,51834,1,4
192,256,53223,6,0,L|224:224,1,40
352,128,54890,5,0
352,192,55446,2,0,L|352:256,1,40
96,64,58501,6,0,L|160:64|160:128|223:131|224:190|285:192|289:252|351:256|349:194,1,480
384,160,62390,2,0,L|256:288|160:160,1,320
96,160,65168,6,0,B|160:160,1,40
256,192,66557,6,4,B|288:192,2,20
256,192,69057,5,8
256,160,69473,2,8,B|288:160,1,20
352,160,70168,5,0
352,224,70723,1,0
352,288,71279,1,0
224,288,72390,5,0
160,288,72946,1,8
96,288,73501,1,0
96,224,74057,1,8
96,160,74612,1,0
160,160,75168,1,8
224,160,75723,2,0,B|288:160,2,40
224,224,76834,2,2,B|224:288,2,40
288,256,77946,6,0,B|352:256,2,40
288,192,79057,2,4,B|288:128,2,40
256,192,80168,12,4,88501
160,224,90168,6,0,L|256:224,1,80
288,224,91279,2,0,L|288:160,2,60
256,96,93223,6,0,B|256:128,2,20
192,64,94057,6,0,L|224:96,1,40
256,128,94890,1,0
256,224,95723,1,0
256,288,96279,1,4
256,192,106834,5,4
256,192,109057,5,0
256,192,111279,5,4
256,256,113501,5,0
288,192,114057,1,0
224,192,114612,1,0
256,256,115168,1,4
320,192,115723,2,0,L|384:192,1,40
448,192,116279,2,0,L|448:256,1,40
352,192,117390,5,0
288,192,117946,1,0
224,192,118501,2,4,B|32:192,1,160
