osu file format v6

[General]
AudioFilename: Kelly - Shoes.mp3
AudioLeadIn: 0
PreviewTime: 14994
Countdown: 0
SampleSet: Soft
StackLeniency: 0.7
Mode: 0
LetterboxInBreaks: 1

[Editor]
Bookmarks: 8880,16880,24880,32880,40880,48880,56880,64880,73380,80880,89005,96880,104880,120880,128880
DistanceSpacing: 0
BeatDivisor: 4
GridSize: 8

[Metadata]
Title:Shoes
Artist:Kelly
Creator:Gens
Version:Hard
Source:Liam Sullivan
Tags:Internet

[Difficulty]
HPDrainRate:7
CircleSize:5
OverallDifficulty:6
SliderMultiplier:1.8
SliderTickRate:1

[Events]
//Background and Video events
Video,3012,"Kelly - Shoes (Video).avi"
0,0,"Kelly - Shoes (Background).png"
//Break Periods
2,32700,39950
2,88950,95950
//Storyboard Layer 0 (Background)
//Storyboard Layer 1 (Fail)
//Storyboard Layer 2 (Pass)
//Storyboard Layer 3 (Foreground)
//Storyboard Sound Samples
//Background Colour Transformations
3,100,0,0,0

[TimingPoints]
9000,500,4,2,1,80,1,0
15005,-100,4,2,1,20,0,0
16505,-100,4,2,0,60,0,0
16880,-100,4,2,1,60,0,0
22505,-100,4,2,0,60,0,0
22880,-100,4,2,1,60,0,0
32380,-100,4,2,0,60,0,0
32630,-100,4,2,1,60,0,0
47380,-100,4,2,0,60,0,0
47942,-100,4,2,1,60,0,0
48067,-100,4,2,1,20,0,0
48505,-100,4,2,1,60,0,0
61005,-100,4,2,1,20,0,0
64505,-100,4,2,0,60,0,0
64880,-100,4,2,1,60,0,0
80130,-100,4,2,1,20,0,0
81005,-100,4,2,0,60,0,0
81380,-100,4,2,1,60,0,0
83005,-100,4,2,0,60,0,0
83380,-100,4,2,1,60,0,0
84880,-100,4,2,0,60,0,0
88630,-100,4,2,1,60,0,0
96880,-100,4,2,0,60,0,0
98130,-100,4,2,1,60,0,0
98880,-100,4,2,0,60,0,0
100130,-100,4,2,1,60,0,0
100880,-100,4,2,0,60,0,0
102130,-100,4,2,1,60,0,0
102880,-100,4,2,0,60,0,0
104130,-100,4,2,1,60,0,0
105130,-100,4,2,1,30,0,0
113005,-100,4,2,0,10,0,0
120505,-100,4,1,0,50,0,0
121005,-50,4,1,0,50,0,1
127000,-200,4,1,0,50,0,0
127505,-100,4,1,0,50,0,0
129005,-100,4,1,0,60,0,0

[HitObjects]
352,96,9000,6,0,B|352:312,1,180,4|8
288,96,10000,2,0,B|288:312,1,180,4|8
224,96,11000,2,0,B|224:312,1,180,4|8
160,96,12000,2,0,B|160:312,1,180,4|8
288,96,13000,6,0,B|320:192|280:304,1,180,4|8
224,96,14000,2,0,B|192:192|232:304,1,180,4|8
256,208,15000,12,4,16500
432,136,17000,6,0,B|344:96|336:176|221:122,1,180,4|8
256,40,17750,1,0
168,88,18000,1,6
168,184,18250,1,0
256,232,18500,1,8
80,232,19000,6,0,B|168:192|176:272|291:218,1,180,4|8
256,136,19750,1,0
344,184,20000,1,6
344,280,20250,1,0
256,328,20500,1,8
80,136,21000,6,0,B|168:96|176:176|291:122,1,180,4|8
256,40,21750,1,0
344,88,22000,1,6
344,184,22250,2,0,B|384:224,2,45,0|0|12
432,232,23000,6,0,B|344:192|336:272|221:218,1,180,4|8
256,136,23750,1,0
168,184,24000,1,6
168,280,24250,1,0
256,328,24500,1,8
416,160,25000,5,4
416,72,25250,2,0,B|416:24,2,45,0|0|8
336,120,25750,1,2
256,72,26000,2,0,B|224:48|192:112|152:56,2,90,4|0|8
96,248,27000,5,4
96,160,27250,2,0,B|96:112,2,45,0|0|8
176,208,27750,1,2
256,160,28000,2,0,B|288:136|320:200|360:144,2,90,4|0|8
416,336,29000,5,4
416,248,29250,2,0,B|416:200,2,45,0|0|8
336,296,29750,1,2
256,248,30000,2,0,B|224:224|192:288|152:232,2,90,4|0|8
344,88,31000,6,0,B|256:48|144:96,2,180,4|8|4
344,88,32250,1,0
344,88,32500,1,12
72,192,41000,6,0,B|112:160|184:152,1,90,4|0
248,160,41500,1,8
344,160,41750,1,0
296,80,42000,2,0,B|248:80,2,45,4|0|0
392,80,42500,1,10
440,272,43000,6,0,B|400:240|328:232,1,90,4|0
264,240,43500,1,8
168,240,43750,1,0
216,328,44000,1,4
216,328,44250,1,0
216,328,44500,1,10
440,192,45000,6,0,B|400:160|328:152,1,90,4|0
264,160,45500,1,8
168,160,45750,1,0
216,80,46000,2,0,B|264:80,2,45,4|0|0
120,80,46500,1,10
72,272,47000,6,0,B|112:240|184:232,1,90,4|0
248,240,47500,1,14
344,240,47750,1,0
296,312,48000,2,0,B|336:312,8,22.5,4|0|0|0|0|0|0|0|8
256,104,49000,6,0,B|360:104,2,90,4|0|8
347,192,50000,2,0,B|147:192,1,180,6|8
256,280,51000,6,0,B|152:280,2,90,4|0|8
167,192,52000,2,0,B|352:192,1,180,6|8
320,104,53000,6,0,B|424:104,2,90,4|0|8
256,12,54000,2,0,B|256:196,1,180,6|8
264,264,54750,1,0
192,280,55000,6,0,B|88:280,2,90,4|0|8
256,372,56000,2,0,B|256:188,1,180,6|8
384,96,57000,6,0,B|384:32|464:32,2,90,4|0|8
256,96,57750,1,2
256,96,57875,1,0
256,96,58000,1,6
160,160,58250,1,0
256,224,58500,1,8
128,288,59000,6,0,B|128:352|48:352,2,90,4|0|8
256,288,59750,1,2
256,288,59875,1,0
256,288,60000,1,6
352,224,60250,1,0
256,160,60500,1,8
256,208,61000,12,14,64500
352,64,65000,5,4
256,64,65250,1,0
256,64,65375,1,0
256,64,65500,2,0,B|280:128|240:184|261:268,1,180,8|4
160,248,66250,2,2,B|160:328,1,45
160,64,67000,5,4
256,64,67250,1,0
256,64,67375,1,0
256,64,67500,2,0,B|232:128|272:184|251:268,1,180,8|4
352,248,68250,2,2,B|352:312,2,45,2|2|8
256,64,69000,5,4
160,64,69250,1,0
160,64,69375,1,0
160,64,69500,2,0,B|184:128|144:184|165:268,1,180,8|4
64,248,70250,2,2,B|64:312,2,45,2|2|8
256,64,71000,5,4
352,64,71250,1,0
352,64,71375,1,0
352,64,71500,2,0,B|328:128|368:184|347:268,1,180,8|4
448,248,72250,2,2,B|448:312,2,45,2|2|8
256,352,72750,1,4
256,352,72875,1,4
256,352,73000,1,4
336,192,73500,6,0,B|256:104|168:205,2,180,8|4|8
256,40,75000,1,4
182,191,75500,6,0,B|262:103|350:204,2,180,8|4|8
256,40,77000,1,4
352,40,77250,5,0
416,112,77500,1,10
352,192,77750,1,0
408,272,78000,1,6
256,40,78500,2,0,B|352:40,2,90,8|0|4
160,40,79250,5,0
96,112,79500,1,10
160,192,79750,1,0
104,272,80000,1,6
256,208,80125,12,4,81000
256,96,81500,5,8
440,96,82000,1,4
440,288,82500,1,8
344,288,82750,2,0,B|344:240,2,45,0|0|4
152,288,83500,1,8
152,104,84000,1,4
344,104,84500,1,8
344,288,85000,6,0,B|24:288|32:104|360:104,1,540,4|8
256,192,86750,1,0
256,192,86875,1,0
256,192,87000,2,4,B|512:192|512:16|232:16,1,450,4|8
256,104,88500,1,8
256,104,88750,1,4
16,24,97000,6,0,L|496:24,1,450,4|4
464,112,98500,1,10
464,112,98750,1,4
464,112,99000,6,0,L|-16:112,1,450,4|4
16,200,100500,1,10
16,200,100750,1,4
16,200,101000,6,0,L|16:312|360:312,1,450,4|4
448,312,102500,1,10
448,216,102750,1,4
448,120,103000,6,0,L|448:8|104:8,1,450,4|4
16,8,104500,1,10
16,104,104750,1,4
16,192,105000,6,0,L|104:208|200:192,1,180,4|8
168,32,106000,2,0,L|256:16|352:32,1,180,4|8
312,192,107000,2,0,L|400:208|496:192,1,180,4|8
488,48,108000,6,0,L|400:32|304:48,1,180,4|8
336,208,109000,2,0,L|248:224|152:208,1,180,4|8
192,48,110000,2,0,L|104:32|8:48,1,180,4|8
192,120,111000,2,0,L|256:184|328:112,3,180,4|8|4|8
256,208,113000,12,4,120500
256,40,121000,5,2
256,232,121250,1,0
152,160,121500,2,0,L|208:104|288:104|304:88|320:120|336:88|352:120,2,270,12|0|0
48,232,122500,1,12
256,40,123000,5,2
256,232,123250,1,0
360,160,123500,2,0,L|304:104|224:104|208:88|192:120|176:88|160:120,2,270,12|0|0
464,232,124500,1,12
64,192,125000,5,2
256,192,125250,1,0
168,64,125500,1,12
360,64,125750,2,0,L|464:64,2,90,0|0|0
256,192,126250,1,0
448,192,126500,1,12
208,296,127000,6,6,L|320:296,1,90,6|14
256,208,127625,12,4,129000
