osu file format v6

[General]
AudioFilename: Kelly - Shoes.mp3
AudioLeadIn: 0
PreviewTime: 14994
Countdown: 0
SampleSet: Normal
StackLeniency: 1
Mode: 0
LetterboxInBreaks: 1

[Editor]
Bookmarks: 8880,16880,24880,32880,40880,48880,56880,64880,73380,80880,89005,96880,104880,120880,128880
DistanceSpacing: 0
BeatDivisor: 4
GridSize: 8

[Metadata]
Title:Shoes
Artist:Kelly
Creator:Gens
Version:Easy
Source:Liam Sullivan
Tags:Internet

[Difficulty]
HPDrainRate:3
CircleSize:4
OverallDifficulty:3
SliderMultiplier:1.3
SliderTickRate:2

[Events]
//Background and Video events
0,0,"Kelly - Shoes (Background).png"
Video,3269,"Kelly - Shoes (Video).avi"
//Break Periods
2,32700,39560
2,89200,95560
2,104700,111560
//Storyboard Layer 0 (Background)
//Storyboard Layer 1 (Fail)
//Storyboard Layer 2 (Pass)
//Storyboard Layer 3 (Foreground)
//Storyboard Sound Samples
//Background Colour Transformations
3,100,0,0,0

[TimingPoints]
9000,500,4,2,1,70,1,0
16880,-100,4,2,1,60,0,0
22505,-100,4,2,0,60,0,0
22880,-100,4,2,1,60,0,0
32380,-100,4,2,0,60,0,0
32880,-100,4,2,1,60,0,0
47380,-100,4,2,0,60,0,0
47880,-100,4,2,1,60,0,0
63380,-100,4,2,0,60,0,0
63880,-100,4,2,1,60,0,0
64880,-100,4,2,1,60,0,0
80880,-100,4,2,0,60,0,0
84880,-100,4,2,1,60,0,0
86880,-100,4,2,0,60,0,0
88880,-100,4,2,1,60,0,0
96880,-100,4,2,0,60,0,0
97880,-100,4,2,1,60,0,0
98880,-100,4,2,0,60,0,0
99880,-100,4,2,1,60,0,0
100880,-100,4,2,0,60,0,0
101880,-100,4,2,1,60,0,0
102880,-100,4,2,0,60,0,0
103880,-100,4,2,1,60,0,0
113005,-100,4,2,0,10,0,0
120505,-100,4,1,0,50,0,0
121000,-50,4,1,0,50,0,1
129005,-100,4,1,0,60,0,0

[HitObjects]
40,40,17000,6,0,B|304:40,1,260,4|4
472,112,19000,2,0,B|208:112,1,260,4|4
40,184,21000,2,0,B|304:184,1,260,4|4
376,184,22250,2,0,B|448:184,1,65,0|12
472,272,23000,2,0,B|208:272,1,260,4|4
192,72,25000,6,0,B|256:88|328:72,2,130,4|8|4
320,145,27000,2,0,B|256:160|192:144,2,130,4|8|4
192,216,29000,6,0,B|256:232|328:216,2,130,4|8|4
320,289,31000,2,0,B|255:303|192:288,2,130,4|8|4
408,288,32500,1,12
168,40,41000,6,0,B|64:144,1,130,4|0
76,131,42000,1,4
256,128,43000,6,0,B|360:232,1,130,4|0
348,219,44000,1,12
168,216,45000,6,0,B|64:320,1,130,4|0
76,307,46000,1,4
160,192,47000,6,0,B|160:104|264:104,1,130,4|4
256,8,48000,1,4
256,8,48250,1,0
256,8,48500,1,8
360,0,49000,6,4,B|416:40|416:88|360:120|304:152|304:208|360:240,3,260
173,223,53000,6,4,B|208:208|208:152|152:120|96:88|96:40|152:0,3,260
256,32,57000,5,4
256,32,57250,1,0
256,32,57500,1,8
256,128,58000,2,0,B|256:280,1,130,4|8
256,352,59000,5,4
256,352,59250,1,0
256,352,59500,1,8
256,256,60000,2,0,B|256:104,1,130,4|8
256,40,61000,5,4
256,40,61250,1,0
256,40,61500,1,8
192,120,62000,2,0,B|336:120,1,130,4|8
256,200,63000,5,4
256,200,63250,1,0
256,200,63500,1,4
328,120,64000,2,0,B|184:120,1,130,4|8
128,56,65000,6,0,B|256:8|400:64,1,260,4|4
496,104,66500,1,8
381,153,67000,6,0,B|255:203|120:152,1,260,4|4
16,104,68500,1,8
128,56,69000,6,0,B|256:8|400:64,1,260,4|4
496,104,70500,1,8
381,153,71000,6,0,B|255:203|120:152,1,260,4|4
16,104,72500,1,8
16,104,72750,1,0
16,104,73000,1,4
120,40,73500,6,0,B|264:40,2,130,8|4|8
232,112,75500,2,0,B|376:112,2,130,8|4|8
354,184,77500,6,0,B|224:184,2,130,8|4|8
256,256,79500,2,0,B|112:256,1,130,8|4
48,104,81000,6,4,B|96:56|96:56|176:136|176:136|256:56|256:56|336:136|336:136|416:56,2,520
48,192,85500,1,8
48,192,86000,1,4
48,192,86500,1,8
48,280,87000,6,4,B|96:328|96:328|176:248|176:248|256:328|256:328|336:248|336:248|416:328,1,520
472,40,97000,6,4,L|424:32|376:48|328:32|288:40|216:40,1,260
112,40,98500,1,8
40,120,99000,2,4,L|88:112|136:128|184:112|224:120|296:120,1,260
400,120,100500,1,8
472,200,101000,6,4,L|424:192|376:208|328:192|288:200|216:200,1,260
112,200,102500,1,8
40,280,103000,2,4,L|88:272|136:288|184:272|224:280|296:280,1,260
400,280,104500,1,8
256,208,113000,12,4,120500
112,48,121000,6,2,L|104:48|120:56|104:64|120:72|104:80|120:88|104:96|120:104|104:112|120:120|104:128|120:136|104:144|120:152|104:159|120:168,1,260,2|6
184,216,122000,1,0
184,216,122500,1,8
256,48,123000,6,2,L|248:48|264:56|248:64|264:72|248:80|264:88|248:96|264:104|248:112|264:120|248:128|264:136|248:144|264:152|248:159|264:168,1,260,2|6
328,216,124000,1,0
328,216,124500,1,8
400,48,125000,6,2,L|392:48|408:56|392:64|408:72|392:80|408:88|392:96|408:104|392:112|408:120|392:128|408:136|392:144|408:152|392:159|408:168,1,260,2|6
472,216,126000,1,0
472,216,126500,1,8
256,192,127000,5,6
256,192,127500,1,6
256,208,127625,12,4,129000
