osu file format v14

[General]
AudioFilename: The Fighter.mp3
AudioLeadIn: 0
PreviewTime: 42989
Countdown: 1
SampleSet: Normal
StackLeniency: 0.7
Mode: 0
LetterboxInBreaks: 0
EpilepsyWarning: 1
WidescreenStoryboard: 1

[Editor]
DistanceSpacing: 1
BeatDivisor: 4
GridSize: 8
TimelineZoom: 0.5

[Metadata]
Title:The Fighter (Featuring Carrie Underwood)
TitleUnicode:The Fighter (Featuring Carrie Underwood)
Artist:Keith Urban
ArtistUnicode:Keith Urban
Creator:Lanturn
Version:Easy
Source:
Tags:RIPCORD feat ft Country
BeatmapID:1572684
BeatmapSetID:745701

[Difficulty]
HPDrainRate:2
CircleSize:2.3
OverallDifficulty:2
ApproachRate:3
SliderMultiplier:1
SliderTickRate:2

[Events]
//Background and Video events
0,0,"The Fighter.jpg",0,0
//Break Periods
2,124212,137117
//Storyboard Layer 0 (Background)
//Storyboard Layer 1 (Fail)
//Storyboard Layer 2 (Pass)
//Storyboard Layer 3 (Foreground)
//Storyboard Sound Samples

[TimingPoints]
375.894255367542,454.545454545455,4,1,1,70,1,0
44012,-100,4,1,1,80,0,1
73103,-100,4,1,1,70,0,0
94921,-100,4,1,1,80,0,1
124012,-100,4,1,1,70,0,0
138557,-100,4,1,1,80,0,1
167648,-100,4,1,1,70,0,0
171057,-100,4,1,1,50,0,0
174012,-100,4,1,1,40,0,0
176739,-100,4,1,1,30,0,0
178557,-100,4,1,1,20,0,0
180375,-100,4,1,1,10,0,0

[Colours]
Combo1 : 244,0,244
Combo2 : 128,128,255
Combo3 : 255,128,192
Combo4 : 128,0,255

[HitObjects]
134,67,14921,6,0,P|121:123|142:179,1,100,0|8,2:0|0:0,0:0:0:0:
198,238,15830,2,0,L|198:326,2,50,2|0|8,0:0|2:0|0:0,0:0:0:0:
259,159,16739,1,0,0:0:0:0:
347,111,17194,2,0,B|444:126|444:126|499:223,1,200,8|8,0:0|0:0,0:0:0:0:
491,314,18557,1,0,2:0:0:0:
397,350,19012,2,0,B|300:335|300:335|245:238,1,200,8|8,0:0|0:0,0:0:0:0:
289,154,20375,1,0,2:0:0:0:
220,81,20830,2,0,B|123:96|123:96|68:193,1,200,8|8,0:0|0:0,0:0:0:0:
85,283,22194,6,0,P|178:315|212:310,1,100,0|8,2:0|0:0,0:0:0:0:
253,249,23103,2,0,L|329:249,2,50,2|0|8,0:0|2:0|0:0,0:0:0:0:
164,202,24012,1,0,2:0:0:0:
221,120,24466,2,0,B|300:78|331:186|417:127,1,200,8|8,0:0|0:0,0:0:0:0:
479,203,25830,1,0,2:0:0:0:
402,265,26284,2,0,B|323:223|292:331|206:272,1,200,8|8,0:0|0:0,0:0:0:0:
142,347,27648,1,0,2:0:0:0:
59,290,28103,2,0,B|17:211|125:180|66:94,1,200,8|8,0:0|0:0,0:0:0:0:
159,54,29466,6,0,P|232:33|328:36,2,150,0|2|8,2:0|0:0|0:0,0:0:0:0:
219,133,31284,2,0,P|292:151|374:201,2,150,0|2|8,2:0|0:0|0:0,0:0:0:0:
240,230,33103,2,0,P|294:282|340:367,2,150,0|2|8,2:0|0:0|0:0,0:0:0:0:
174,305,34921,1,0,2:0:0:0:
83,261,35375,2,0,P|48:178|97:68,1,200,8|8,0:0|0:0,0:0:0:0:
178,44,36739,6,0,L|300:44,1,100,0|0,2:0|2:0,0:0:0:0:
378,44,37648,2,0,L|500:44,1,100,0|0,2:0|2:0,0:0:0:0:
478,144,38557,2,0,L|356:144,1,100,0|0,2:0|2:0,0:0:0:0:
278,144,39466,2,0,L|156:144,1,100,0|0,2:0|2:0,0:0:0:0:
136,232,40375,2,0,B|172:268|172:268|206:233|206:233|242:268|242:268|277:233|277:233|313:269|313:269|348:234|348:234|382:269,1,350,0|0,2:0|2:0,0:0:0:0:
304,40,44012,6,0,L|344:192,2,150,4|2|8,0:0|0:0|0:0,0:0:0:0:
226,103,45830,2,0,L|186:255,2,150,0|2|8,2:0|0:0|0:0,0:0:0:0:
304,40,47648,2,0,B|391:13|441:66|440:119|440:119|366:205,1,300,0|8,0:0|0:0,0:0:0:0:
331,298,49466,2,0,P|269:326|221:322,1,100,0|8,2:0|0:0,0:0:0:0:
147,284,50375,1,2,0:0:0:0:
81,208,50830,1,8,0:0:0:0:
109,112,51284,6,0,B|164:52|164:52|264:52,2,150,4|2|8,0:0|0:0|0:0,0:0:0:0:
176,186,53103,2,0,B|253:161|253:161|340:211,2,150,0|2|8,2:0|0:0|0:0,0:0:0:0:
134,276,54921,2,0,P|172:309|236:332,1,100,0|8,2:0|0:0,0:0:0:0:
317,326,55830,1,2,0:0:0:0:
408,285,56284,1,8,0:0:0:0:
473,209,56739,1,0,2:0:0:0:
387,28,57648,2,0,P|336:42|286:23,1,100,2|8,0:0|0:0,0:0:0:0:
214,90,58557,6,0,B|234:149|185:181|209:253,2,150,4|2|8,0:0|0:0|0:0,0:0:0:0:
312,108,60375,2,0,B|332:167|283:199|307:271,2,150,0|2|8,2:0|0:0|0:0,0:0:0:0:
389,43,62194,2,0,B|461:176|461:176|414:233|480:269|420:326,1,300,0|8,2:0|0:0,0:0:0:0:
329,326,64012,2,0,B|317:277|317:277|327:224,1,100,0|8,2:0|0:0,0:0:0:0:
394,155,64921,1,2,0:0:0:0:
451,73,65375,1,8,0:0:0:0:
355,42,65830,6,0,P|278:60|199:23,2,150,4|2|8,0:0|0:0|0:0,0:0:0:0:
438,97,67648,2,0,P|380:151|293:158,2,150,0|2|8,2:0|0:0|0:0,0:0:0:0:
489,182,69466,2,0,P|453:219|392:243,1,100,0|8,2:0|0:0,0:0:0:0:
310,252,70375,1,2,0:0:0:0:
215,220,70830,1,8,0:0:0:0:
158,137,71284,1,0,2:0:0:0:
431,299,73103,6,0,B|445:252|445:252|429:185,1,100,0|8,2:0|0:0,0:0:0:0:
387,113,74012,2,0,L|418:35,2,50,2|0|8,0:0|2:0|0:0,0:0:0:0:
290,138,74921,1,0,0:0:0:0:
200,92,75375,2,0,P|103:107|48:204,1,200,8|8,0:0|0:0,0:0:0:0:
60,286,76739,1,0,2:0:0:0:
152,325,77194,2,0,P|249:310|304:213,1,200,8|8,0:0|0:0,0:0:0:0:
283,131,78557,1,0,0:0:0:0:
341,50,79012,2,0,P|421:104|436:200,1,200,8|8,0:0|0:0,0:0:0:0:
384,286,80375,6,0,L|267:322,1,100,0|8,2:0|0:0,0:0:0:0:
198,270,81284,2,0,L|197:203,2,50,2|0|8,0:0|2:0|0:0,0:0:0:0:
143,353,82194,1,0,2:0:0:0:
73,281,82648,2,0,L|20:76,1,200,8|8,0:0|0:0,0:0:0:0:
96,19,84012,1,0,2:0:0:0:
192,42,84466,2,0,L|242:235,1,200,8|8,0:0|0:0,0:0:0:0:
331,281,85830,1,0,2:0:0:0:
406,215,86284,2,0,L|355:21,1,200,8|8,0:0|0:0,0:0:0:0:
256,24,87648,6,0,B|207:38|207:38|152:24,1,100,0|0,2:0|2:0,0:0:0:0:
88,96,88557,2,0,B|102:145|102:145|88:200,1,100,0|0,2:0|2:0,0:0:0:0:
160,263,89466,2,0,B|209:249|209:249|264:263,1,100,0|0,2:0|2:0,0:0:0:0:
327,190,90375,2,0,B|313:141|313:141|327:86,1,100,0|0,2:0|2:0,0:0:0:0:
425,93,91284,2,0,B|461:129|461:129|426:163|426:163|461:199|461:199|426:234|426:234|462:270|462:270|427:305|427:305|462:339,1,350,0|0,2:0|2:0,0:0:0:0:
272,41,94921,6,0,B|284:128|284:128|337:183,2,150,4|2|8,0:0|0:0|0:0,0:0:0:0:
181,86,96739,2,0,B|193:173|193:173|246:228,2,150,0|2|8,2:0|0:0|0:0,0:0:0:0:
82,100,98557,2,0,B|62:242|62:242|56:305|89:333|162:336,1,300,0|8,2:0|0:0,0:0:0:0:
241,278,100375,2,0,L|322:206,1,100,0|8,2:0|0:0,0:0:0:0:
410,179,101284,1,2,0:0:0:0:
489,239,101739,1,8,0:0:0:0:
445,329,102194,6,0,B|380:368|366:323|298:355,2,150,4|2|8,0:0|0:0|0:0,0:0:0:0:
386,247,104012,2,0,B|309:247|319:201|245:195,2,150,0|2|8,2:0|0:0|0:0,0:0:0:0:
452,171,105830,2,0,L|409:78,1,100,0|8,2:0|0:0,0:0:0:0:
321,34,106739,1,2,0:0:0:0:
267,118,107194,1,8,0:0:0:0:
188,180,107648,1,0,2:0:0:0:
42,42,108557,2,0,P|93:28|143:47,1,100,2|8,0:0|0:0,0:0:0:0:
214,90,109466,6,0,B|225:154|225:154|202:203|221:263,2,150,4|2|8,0:0|0:0|0:0,0:0:0:0:
312,104,111284,2,0,B|323:168|323:168|300:217|319:277,2,150,0|2|8,2:0|0:0|0:0,0:0:0:0:
408,77,113103,2,0,B|427:175|427:175|490:205|504:258|501:323|447:356,1,300,0|8,2:0|0:0,0:0:0:0:
388,273,114921,2,0,P|339:285|286:271,1,100,0|8,2:0|0:0,0:0:0:0:
219,201,115830,1,2,0:0:0:0:
144,268,116284,1,8,0:0:0:0:
213,340,116739,6,0,L|373:364,2,150,4|2|8,0:0|0:0|0:0,0:0:0:0:
272,259,118557,2,0,L|422:199,2,150,0|2|8,2:0|0:0|0:0,0:0:0:0:
200,188,120375,2,0,P|185:134|206:82,1,100,0|8,2:0|0:0,0:0:0:0:
278,34,121284,1,2,0:0:0:0:
369,72,121739,1,8,0:0:0:0:
331,164,122194,2,0,B|312:231|365:291|365:291|241:344|226:218|97:294,1,400,0|4,2:0|0:0,0:0:0:0:
291,54,138557,6,0,P|323:134|273:210,2,150,4|2|8,0:0|0:0|0:0,0:0:0:0:
219,126,140375,2,0,P|187:206|237:282,2,150,0|2|8,2:0|0:0|0:0,0:0:0:0:
124,88,142194,2,0,B|62:112|43:193|43:193|77:221|83:260|83:260|92:296|133:330,1,300,0|8,2:0|0:0,0:0:0:0:
216,277,144012,2,0,P|230:231|213:178,1,100,0|8,2:0|0:0,0:0:0:0:
124,142,144921,1,2,0:0:0:0:
59,65,145375,1,8,0:0:0:0:
157,47,145830,6,0,B|218:37|218:37|275:25|300:88,2,150,4|2|8,0:0|0:0|0:0,0:0:0:0:
124,142,147648,2,0,B|181:163|181:163|237:181|227:249,2,150,0|2|8,2:0|0:0|0:0,0:0:0:0:
46,205,149466,2,0,P|46:257|71:302,1,100,0|8,2:0|0:0,0:0:0:0:
156,346,150375,1,2,0:0:0:0:
255,343,150830,1,8,0:0:0:0:
346,302,151284,1,0,2:0:0:0:
437,124,152194,2,0,P|427:76|391:40,1,100,2|8,0:0|0:0,0:0:0:0:
302,85,153103,6,0,B|288:134|288:134|307:177|307:177|293:255,2,150,4|2|8,0:0|0:0|0:0,0:0:0:0:
201,98,154921,2,0,B|187:147|187:147|206:190|206:190|192:268,2,150,0|2|8,2:0|0:0|0:0,0:0:0:0:
104,77,156739,2,0,B|39:109|59:180|59:180|26:216|42:266|42:266|27:328|95:375,1,300,0|8,2:0|0:0,0:0:0:0:
160,352,158557,2,0,L|240:293,1,100,0|8,2:0|0:0,0:0:0:0:
319,231,159466,1,2,0:0:0:0:
419,231,159921,1,8,0:0:0:0:
477,312,160375,6,0,B|437:325|417:345|417:345|376:334|321:354,2,150,4|2|8,0:0|0:0|0:0,0:0:0:0:
419,231,162194,2,0,B|377:222|350:229|350:229|320:199|262:189,2,150,0|2|8,2:0|0:0|0:0,0:0:0:0:
495,166,164012,2,0,L|456:73,1,100,0|8,2:0|0:0,0:0:0:0:
364,33,164921,1,2,0:0:0:0:
283,91,165375,1,8,0:0:0:0:
279,192,165830,1,0,2:0:0:0:
447,88,166739,2,0,L|362:32,1,100,2|8,0:0|0:0,0:0:0:0:
264,49,167648,6,0,P|195:196|257:309,1,300,4|8,0:0|0:0,0:0:0:0:
350,276,169466,2,0,P|438:247|499:264,2,150,0|2|8,2:0|0:0|0:0,0:0:0:0:
287,354,171284,2,0,B|169:352|86:308|86:308|148:259|148:259|80:219|101:151,1,400,0|0,2:0|2:0,0:0:0:0:
174,103,173557,1,8,0:0:0:0:
264,60,174012,2,0,P|343:101|358:136,1,100,2|8,0:0|0:0,0:0:0:0:
256,192,174921,12,0,180375,0:0:0:0:
