osu file format v5

[General]
AudioFilename: Chobits - Dark Chii Theme [Fuuma Dialogue Mix].mp3
AudioLeadIn: 0
PreviewTime: -1
Countdown: 1
SampleSet: Normal
StackLeniency: 1
Mode: 0
LetterboxInBreaks: 1
EditorDistanceSpacing: 1.10000002384186

[Metadata]
Title:Dark Chii Theme (Fuuma Dialogue Mix)
Artist:Keitaro Takanami
Creator:Beuchi-chan
Version:Light
Source:Chobits
Tags:chobits

[Difficulty]
HPDrainRate:5
CircleSize:5
OverallDifficulty:3
SliderMultiplier:0.9
SliderTickRate:2

[Events]
//Background and Video events
0,0,"chii32.JPG"
//Break Periods
2,43003,55934
2,91859,104362
//Storyboard Layer 0 (Background)
//Storyboard Layer 1 (Failing)
//Storyboard Layer 2 (Passing)
//Storyboard Layer 3 (Foreground)
//Storyboard Sound Samples
//Background Colour Transformations
3,100,163,162,255

[TimingPoints]
2517,428.571428571429,4,1,0,60,1,0

[Colours]
Combo1 : 255,255,255
Combo2 : 0,0,121
Combo3 : 255,255,128
Combo4 : 185,0,92

[HitObjects]
256,192,14517,12,0,21374
96,72,23088,5,0
192,72,23517,2,8,B|272:8|368:72,1,180
440,120,24803,5,0
344,144,25231,2,8,B|264:208|168:144,1,180
80,184,26517,5,0
168,224,26945,2,8,B|248:160|344:224,1,180
424,264,28231,5,0
328,304,28660,2,8,B|248:368|152:304,1,180
80,192,30374,5,0
432,192,31231,1,0
256,192,32088,5,0
256,192,32517,1,0
256,48,33803,5,0
256,336,34660,1,0
256,192,35517,5,0
256,192,35945,1,0
256,192,36374,1,0
184,192,36803,6,2,B|104:96|40:176|168:320,1,270,2|2
328,192,38517,2,2,B|408:96|472:176|344:320,1,270,2|2
256,192,40231,12,8,41945
208,192,42374,5,8
304,192,42803,1,8
72,80,57374,5,0
168,80,57803,1,0
264,80,58231,1,0
360,80,58660,2,0,B|376:128,2,45,8|8|8
304,160,59517,5,0
208,184,59945,1,0
112,208,60374,2,0,B|64:224,2,45,8|8|8
200,256,61231,5,0
296,280,61660,1,0
392,304,62088,2,0,B|408:256,2,45,8|8|8
344,216,62945,5,0
400,136,63374,1,0
336,64,63803,2,0,B|288:80,2,45,8|8|8
240,48,64660,5,2
144,80,65088,1,0
80,152,65517,1,2
56,248,65945,1,0
112,328,66374,5,2
208,344,66803,1,0
304,344,67231,1,2
392,312,67660,1,0
464,248,68088,5,2
440,152,68517,1,0
368,80,68945,1,2
264,80,69374,5,2
224,104,69588,5,2
256,144,69803,5,0
288,176,70017,5,2
256,208,70231,5,2
224,240,70445,5,0
256,272,70660,5,2
288,304,70874,5,2
256,336,71088,6,0,B|256:144,1,180,4|8
168,104,72374,1,8
112,192,72803,6,0,B|304:192,1,180,0|8
392,192,74088,1,8
328,112,74517,6,0,B|312:64|280:32|248:16|184:32,1,180,0|8
112,88,75803,1,8
72,112,76017,6,10,B|40:112,2,22.5,2|2|2
104,144,76446,6,2,B|136:144,2,22.5,2|2|2
72,176,76874,6,2,B|40:176,2,22.5,2|2|2
104,208,77303,6,2,B|136:208,4,22.5
72,256,77946,6,0,B|88:304|152:304,1,90
240,304,78803,1,8
288,288,79017,1,8
336,272,79231,1,8
408,200,79660,6,0,B|399:143|342:152,1,90
280,96,80516,1,8
232,80,80731,1,8
184,72,80945,1,8
104,136,81374,6,0,B|56:168|88:216,1,90
160,280,82231,1,8
208,264,82445,1,8
256,248,82659,1,8
304,231,82874,6,2,B|327:253,2,22.5,2|2|2
344,200,83302,1,0
368,152,83516,1,0
360,104,83731,1,0
336,64,83945,5,2
288,40,84159,1,8
240,48,84374,1,2
192,64,84588,1,8
192,64,84802,1,2
96,136,85231,6,0,B|48:152|48:216,1,90
49,206,85874,1,8
49,206,86088,1,8
256,192,86517,5,0
400,128,86945,6,0,B|448:144|448:208,1,90
447,197,87588,1,8
447,197,87802,1,8
256,192,88231,5,0
208,304,88659,6,0,B|256:336|304:304,1,90,0|0
293,310,89302,1,8
293,310,89516,1,8
256,192,89945,12,4,91659
256,192,105802,5,8
160,192,106231,1,0
256,192,106659,1,8
352,192,107088,1,0
256,192,107516,5,8
256,96,107945,1,0
256,192,108374,1,8
256,288,108802,1,0
256,192,109231,5,8
168,104,109659,1,0
344,104,110088,1,8
344,272,110516,1,0
168,272,110945,1,8
256,192,111374,5,0
256,192,111802,1,8
64,48,112231,6,0,B|96:96,1,45
128,144,112659,1,8
448,48,113088,6,0,B|416:96,1,45
384,144,113516,1,8
448,336,113945,6,0,B|416:288,1,45
384,240,114374,1,8
64,336,114802,6,0,B|96:288,1,45
128,240,115231,1,8
160,128,115659,5,0
160,128,115874,1,8
224,128,116088,5,0
224,128,116302,1,8
288,128,116516,5,0
288,128,116731,1,8
352,128,116945,5,0
352,128,117159,1,8
256,192,117374,12,4,119088
