osu file format v5

[General]
AudioFilename: Chobits - Dark Chii Theme [Fuuma Dialogue Mix].mp3
AudioLeadIn: 1985
PreviewTime: -1
Countdown: 1
SampleSet: Normal
StackLeniency: 1
Mode: 0
LetterboxInBreaks: 1
EditorDistanceSpacing: 1.10000002384186

[Metadata]
Title:Dark Chii Theme (Fuuma Dialogue Mix)
Artist:Keitaro Takanami
Creator:Beuchi-chan
Version:Dark
Source:Chobits
Tags:chobits chii

[Difficulty]
HPDrainRate:9
CircleSize:5
OverallDifficulty:7
SliderMultiplier:1.3
SliderTickRate:4

[Events]
//Background and Video events
0,0,"chobits_01_1024.jpg"
//Break Periods
2,43860,56473
2,91645,104473
//Storyboard Layer 0 (Background)
//Storyboard Layer 1 (Failing)
//Storyboard Layer 2 (Passing)
//Storyboard Layer 3 (Foreground)
4,3,1,"warning!.png",320,240 L,57373,4 F,2,0,428,0.25,0 F,0,428,1714,0,0
4,3,1,"warning!.png",320,240 L,62516,1 F,2,0,428,0.25,0 F,2,428,857,0.375,0 F,2,857,1285,0.5,0 F,2,1285,1714,0.75,0 L,172231,1 F,2,0,428,0.75,0 F,2,857,1285,0.5,0
4,3,0,"white.png",0,0 L,64231,8 F,0,0,428,0.25,0 F,0,428,857,0,0 L,71088,1 F,0,0,428,1,0 L,117373,8 F,2,0,107,0.25,0 L,118231,8 F,2,0,107,0.5,0 L,119088,1 F,2,0,428,1,0 L,173945,1 F,0,0,428,1,0
4,3,0,"sbcircle.png",0,0 L,105373,4 M,0,0,1,246,115,246,115 F,0,0,1,0,0 S,0,0,1,0.5,0.5 M,1,1,428,246,115,220,90 F,1,1,428,0.5,0 S,1,1,428,0.5,1 M,0,429,1714,246,115,246,115 F,0,429,1714,0,0 S,0,429,1714,0.5,0.5
4,3,0,"sbcircle.png",0,0 L,110516,4 M,0,0,1,246,115,246,115 F,0,0,1,0,0 S,0,0,1,0.5,0.5 M,1,1,428,246,115,220,90 F,1,1,428,0.75,0 S,1,1,428,0.5,1
//Storyboard Sound Samples
//Background Colour Transformations
3,100,163,162,255

[TimingPoints]
2516.72842876512,428.571428571429,4,1,0,60,1,0
64231,3428.57142857143,4,1,0,60,1,0
70231,428.571428571429,4,1,0,60,1,0
173945,3428.57142857143,4,1,0,0,1,0

[Colours]
Combo1 : 255,255,255
Combo2 : 105,105,105
Combo3 : 137,137,197
Combo4 : 255,255,130

[HitObjects]
64,64,802,1,0
448,320,2516,5,0
64,320,4231,5,0
448,64,5945,5,0
256,64,7659,5,0
224,96,7981,1,0
192,128,8302,1,0
160,160,8624,1,0
128,192,8945,1,8
128,192,9160,1,8
128,192,9374,5,8
160,224,9695,1,0
192,256,10017,1,0
224,288,10338,1,0
256,320,10660,1,8
256,320,10874,1,8
256,320,11088,5,8
288,288,11410,1,0
320,256,11731,1,0
352,224,12052,1,0
384,192,12374,1,8
384,192,12588,1,8
384,192,12802,5,8
352,160,13070,1,0
320,128,13391,1,0
288,96,13713,1,0
256,64,14034,1,8
256,64,14248,1,8
256,64,14463,5,8
256,192,14945,6,2,B|272:176|304:160|336:160|368:176|384:192,1,130,2|2
256,192,15802,6,2,B|277:197|307:217|323:245|325:280|320:302,1,130
256,192,16659,6,2,B|261:213|259:249|243:277|213:296|192:302,1,130
256,192,17516,6,2,B|240:208|208:224|176:224|144:208|128:192,1,130
256,192,18373,6,2,B|234:186|204:166|188:138|186:103|192:81,1,130
256,192,19231,6,2,B|250:170|252:134|268:106|298:87|320:81,1,130
256,192,20088,6,2,B|272:176|304:160|336:160|368:176|384:192,1,130
256,192,20944,5,8
256,192,21051,1,8
256,192,21159,1,8
256,192,21266,1,8
256,192,21373,1,8
64,96,23088,5,0
128,128,23302,1,0
192,96,23517,1,8
256,96,23731,2,8,B|320:48,1,65,0|0
256,96,24160,2,8,B|320:144,1,65,8|0
352,96,24588,1,0
352,96,24695,1,0
352,96,24802,5,0
416,112,25017,1,0
432,176,25231,1,8
432,240,25445,2,0,B|480:304,1,65
431,240,25874,2,8,B|357:270,1,65,8|0
416,304,26302,1,0
416,304,26410,1,0
416,304,26517,5,0
352,336,26731,1,0
288,304,26945,1,8
224,272,27160,2,0,B|176:208,1,65
224,272,27588,2,8,B|160:320,1,65,8|0
144,256,28017,1,0
144,256,28124,1,0
144,256,28231,5,0
80,224,28445,1,0
128,176,28660,1,8
64,143,28874,2,0,B|34:68,1,65
64,143,29302,2,8,B|138:113,1,65,8|0
96,64,29731,1,0
96,64,29838,1,0
96,64,29945,1,0
176,64,30160,5,0
192,64,30267,1,0
208,64,30374,1,8
256,128,30588,5,0
240,128,30695,1,0
224,128,30802,1,0
176,208,31017,5,8
192,208,31124,1,0
208,208,31231,1,0
272,272,31445,5,0
256,272,31552,1,0
240,288,31660,1,0
224,304,31767,1,0
208,320,31874,1,0
192,320,31981,1,0
176,304,32088,1,8
144,256,32302,1,0
168,200,32517,5,0
240,152,32838,1,0
336,128,33160,1,0
336,128,33374,1,0
416,192,33695,5,0
336,256,34017,1,0
224,288,34338,5,0
112,240,34660,1,0
64,160,34874,6,2,B|80:128,2,32.5
144,159,35302,6,2,B|174:139,2,32.5
208,191,35731,6,2,B|256:192,2,32.5
144,239,36160,6,2,B|164:269,2,32.5
80,207,36588,6,2,B|56:234,2,32.5
144,128,37124,1,0
232,96,37445,1,0
432,96,37874,5,8
480,160,38088,5,8
384,160,38302,5,8
432,224,38517,5,8
320,288,38838,1,0
224,272,39160,1,0
80,96,39588,5,8
32,160,39802,5,8
128,160,40017,5,8
80,224,40231,5,8
256,192,40820,12,4,43660
400,224,57373,5,0
367,191,57588,2,0,B|400:158,2,32.5,0|0|0
335,160,58016,2,0,B|301:194,2,32.5,0|0|0
303,127,58445,2,0,B|327:86,2,32.5,0|0|0
256,112,58873,1,0
256,112,59088,5,0
208,112,59302,2,0,B|208:160,2,32.5,0|0|0
160,112,59731,2,0,B|160:64,2,32.5,0|0|0
112,128,60159,2,0,B|128:160,2,32.5,0|0|0
80,160,60588,1,0
80,160,60802,5,0
64,208,61016,2,0,B|16:208,2,32.5,0|0|0
64,256,61445,2,0,B|112:256,2,32.5,0|0|0
64,304,61873,2,0,B|32:320,2,32.5,0|0|0
112,320,62302,1,0
112,320,62516,5,0
160,320,62731,2,0,B|160:272,2,32.5,0|0|0
208,320,63159,2,0,B|224:352,2,32.5,0|0|0
240,288,63588,2,0,B|272:272,4,32.5
240,288,64231,6,0,B|192:240|288:208|288:176|192:144|192:112|240:80,1,227.5
80,64,71088,5,0
128,96,71302,1,0
176,64,71516,1,8
224,96,71730,2,0,B|288:112|224:128,1,65
192,144,72159,6,8,B|128:160|192:176,1,65,0|0
224,192,72588,6,0,B|240:224,2,32.5,0|0|0
272,176,73016,6,0,B|288:112|304:176,1,65,0|8
320,208,73445,6,0,B|336:272|352:208,1,65
376,176,73873,6,0,B|440:144,1,65,8|0
435,147,74195,5,0
435,147,74302,5,0
435,147,74409,5,0
435,147,74516,5,0
448,192,74731,6,0,B|512:208|448:224,1,65,0|8
448,272,75159,5,0
400,272,75373,1,0
352,256,75588,6,0,B|336:192|320:256,1,65,8|0
288,288,76016,5,0
272,288,76123,5,0
256,288,76230,5,0
208,288,76445,6,0,B|192:352|176:288,1,65,0|8
144,272,76873,6,0,B|128:208|112:272,1,65,0|0
80,304,77302,5,8
80,304,77409,1,8
48,256,77623,1,8
48,256,77730,1,8
80,208,77945,5,0
32,176,78159,1,8
32,176,78266,1,8
80,144,78480,1,8
80,144,78588,1,8
128,112,78802,5,8
144,112,78909,5,0
160,112,79016,5,8
176,112,79123,5,0
192,112,79230,5,8
240,112,79445,5,0
288,144,79659,1,0
240,176,79873,1,8
240,176,79980,1,8
288,208,80195,1,8
288,208,80302,1,8
352,208,80516,5,8
368,208,80623,5,0
384,224,80730,5,8
384,240,80838,5,0
368,256,80945,5,8
320,304,81159,5,0
272,272,81373,1,0
224,304,81588,5,8
224,304,81695,5,8
176,272,81909,1,8
176,272,82016,1,8
128,304,82230,5,0
80,272,82445,5,8
80,272,82552,1,8
112,224,82766,1,8
112,224,82873,1,8
112,176,83088,5,0
144,128,83302,5,0
160,112,83409,1,0
176,96,83516,1,0
80,128,83730,5,0
64,112,83838,1,0
48,96,83945,1,0
112,128,84159,5,0
112,112,84266,1,0
112,96,84373,1,0
256,192,84802,12,0,85659
256,48,86088,5,2
256,48,86195,5,2
256,48,86302,5,2
256,192,86516,12,0,87373
256,336,87802,5,2
256,336,87909,5,2
256,336,88016,5,2
256,192,88230,12,0,89945
192,168,90159,5,0
256,136,90373,1,0
320,168,90588,1,0
320,240,90748,1,8
304,272,90855,1,8
240,280,91070,1,8
208,264,91176,1,8
184,200,91445,1,4
80,64,105373,5,0
160,48,105802,1,8
240,32,106230,1,0
320,32,106659,1,8
400,48,107088,5,0
448,112,107516,1,8
464,192,107945,1,0
432,272,108373,1,8
368,320,108802,5,0
288,336,109230,1,8
208,336,109659,1,0
128,320,110088,1,8
64,272,110516,5,0
32,192,110945,1,8
64,112,111373,1,0
144,80,111802,1,8
216,72,112230,5,0
288,80,112445,1,0
352,96,112659,1,8
400,144,112873,1,0
416,208,113088,1,0
400,272,113302,1,0
344,304,113516,1,8
280,328,113730,1,0
208,320,113945,5,0
144,304,114159,1,0
80,288,114373,1,8
32,240,114588,1,0
40,176,114802,1,0
72,120,115016,1,0
128,80,115230,1,8
192,80,115445,1,0
256,80,115659,5,0
320,104,115873,1,0
368,152,116088,1,8
400,208,116302,1,0
392,272,116516,1,0
336,312,116730,1,0
264,312,116945,1,8
208,272,117159,1,0
208,208,117373,5,8
208,192,117480,5,0
208,176,117588,5,8
208,160,117695,5,0
208,144,117802,5,8
208,128,117909,5,0
208,112,118016,5,8
224,96,118123,5,0
240,96,118230,5,8
256,112,118338,5,0
256,128,118445,5,8
256,144,118552,5,0
256,160,118659,5,8
256,176,118766,5,0
256,192,118873,5,8
256,208,118980,5,0
256,224,119088,5,12
448,64,120802,5,0
64,64,122089,5,0
112,112,122517,1,0
464,336,124017,5,0
464,336,124124,1,0
464,336,124231,1,0
48,336,125517,5,0
96,288,125945,1,0
448,48,127660,5,0
304,64,128517,5,0
208,64,128838,1,0
256,128,129159,1,0
256,128,129373,1,0
256,336,130873,5,0
256,336,130981,1,0
256,336,131088,1,0
48,192,131945,5,0
96,192,132159,1,0
144,192,132373,1,0
192,192,132588,1,0
240,192,132802,1,0
272,160,133016,5,8
272,160,133123,1,8
304,192,133338,5,8
304,192,133445,1,8
336,224,133659,5,0
368,192,133873,5,8
368,192,133980,1,8
400,160,134195,5,8
400,160,134302,1,8
432,192,134516,5,0
464,224,134730,5,8
464,224,134838,1,0
464,224,134945,1,8
432,256,135159,5,8
432,256,135266,1,0
432,256,135373,1,8
400,288,135588,5,8
400,288,135695,1,0
400,288,135802,1,8
256,192,136231,12,0,138803
256,192,139445,5,0
256,192,139552,1,0
64,64,140838,6,0,B|64:112,5,32.5
64,160,141588,1,0
64,224,141802,1,0
64,288,142016,1,0
256,192,142873,6,0,B|256:144,2,32.5
448,320,144266,6,0,B|448:272,5,32.5
448,224,145016,1,0
448,160,145230,1,0
448,96,145445,1,0
64,48,146945,5,0
176,136,147373,1,0
256,192,147695,1,0
256,128,148016,5,0
256,264,148230,1,8
176,192,148445,5,0
336,192,148659,1,8
256,192,148873,5,0
416,48,150159,6,0,B|416:96,2,32.5
400,176,150802,1,0
352,256,151123,1,0
272,304,151445,1,0
208,304,151659,1,0
128,256,151980,1,0
96,200,152195,6,0,B|48:200,3,32.5
96,200,152623,6,0,B|96:152,3,32.5
96,200,153052,6,0,B|144:200,3,32.5
416,64,153802,5,8
336,176,154231,1,0
268,108,154552,1,0
257,187,154873,1,8
257,187,155088,1,8
256,192,155945,12,0,159373
32,32,160231,5,0
480,352,161945,5,0
480,32,163659,5,0
32,352,165373,5,0
256,32,167088,5,0
256,352,168802,5,0
16,192,170516,5,0
496,192,172231,5,0
256,192,173088,5,0
240,96,173945,6,0,B|304:112|304:208|192:208|288:328,1,260
