osu file format v9

[General]
AudioFilename: Dies Irae OST Arrange - Holocaust.mp3
AudioLeadIn: 0
PreviewTime: 13755
Countdown: 0
SampleSet: Soft
StackLeniency: 0.7
Mode: 0
LetterboxInBreaks: 1

[Editor]
Bookmarks: 102212,107698,123555,124841
DistanceSpacing: 1
BeatDivisor: 4
GridSize: 4

[Metadata]
Title:Holocaust (Arrange)
Artist:Keishi Yonao
Creator:Trauma-
Version:Atziluth
Source:Dies Irae
Tags:Light VN Visual Novel Eroge Streams OST

[Difficulty]
HPDrainRate:6
CircleSize:4
OverallDifficulty:6
ApproachRate:9
SliderMultiplier:1.6
SliderTickRate:2

[Events]
//Background and Video events
0,0,"Wilhelm Ehrenburg.jpg"
//Break Periods
2,31097,35097
2,102410,107097
//Storyboard Layer 0 (Background)
//Storyboard Layer 1 (Fail)
//Storyboard Layer 2 (Pass)
//Storyboard Layer 3 (Foreground)
//Storyboard Sound Samples
//Background Colour Transformations
3,100,163,162,255

[TimingPoints]
2784,342.857142857143,4,1,1,95,1,0
8184,-90.9090909090909,4,1,1,95,0,0
19926,342.857142857143,4,1,1,95,1,1
19926,-90.9090909090909,4,1,1,95,0,1
21425,-90.9090909090909,4,1,2,88,0,1
21511,-90.9090909090909,4,1,1,95,0,1
22111,-90.9090909090909,4,1,2,88,0,1
22197,-90.9090909090909,4,1,1,95,0,1
24168,-90.9090909090909,4,1,2,88,0,1
24254,-90.9090909090909,4,1,1,95,0,1
24854,-90.9090909090909,4,1,2,88,0,1
24940,-90.9090909090909,4,1,1,95,0,1
26911,-90.9090909090909,4,1,2,88,0,1
26997,-90.9090909090909,4,1,1,95,0,1
27597,-90.9090909090909,4,1,2,88,0,1
27683,-90.9090909090909,4,1,1,95,0,1
29654,-90.9090909090909,4,1,2,88,0,1
29740,-90.9090909090909,4,1,1,95,0,1
29825,-90.9090909090909,4,1,2,88,0,1
29911,-90.9090909090909,4,1,1,95,0,1
30340,-90.9090909090909,4,1,2,88,0,1
30425,-90.9090909090909,4,1,1,95,0,1
30897,-90.9090909090909,4,1,1,95,0,0
35696,-66.6666666666667,4,1,1,95,0,0
36211,-90.9090909090909,4,1,1,95,0,0
37883,-90.9090909090909,4,1,2,88,0,0
37968,-90.9090909090909,4,1,1,95,0,0
38568,-90.9090909090909,4,1,2,88,0,0
38654,-90.9090909090909,4,1,1,95,0,0
40625,-90.9090909090909,4,1,2,88,0,0
40711,-90.9090909090909,4,1,1,95,0,0
41311,-90.9090909090909,4,1,2,88,0,0
41397,-90.9090909090909,4,1,1,95,0,0
41997,-90.9090909090909,4,1,2,88,0,0
42083,-90.9090909090909,4,1,1,95,0,0
42683,-90.9090909090909,4,1,2,88,0,0
42768,-90.9090909090909,4,1,1,95,0,0
43368,-90.9090909090909,4,1,2,88,0,0
43454,-90.9090909090909,4,1,1,95,0,0
45383,-90.9090909090909,4,1,2,88,0,0
45554,-90.9090909090909,4,1,1,95,0,0
45725,-90.9090909090909,4,1,2,88,0,0
45897,-90.9090909090909,4,1,1,60,0,0
46154,-90.9090909090909,4,1,1,65,0,0
46325,-90.9090909090909,4,1,1,75,0,0
46497,-90.9090909090909,4,1,1,85,0,0
46668,-90.9090909090909,4,1,1,95,0,0
52283,-90.9090909090909,4,1,2,88,0,0
52368,-90.9090909090909,4,1,1,95,0,0
58497,-90.9090909090909,4,2,0,60,0,0
58497,-90.9090909090909,4,2,0,100,0,0
59611,-90.9090909090909,4,1,1,95,0,0
59783,-90.9090909090909,4,2,0,95,0,0
59954,-90.9090909090909,4,1,1,95,0,0
60125,-90.9090909090909,4,2,0,100,0,0
60383,-90.9090909090909,4,1,1,65,0,0
60554,-90.9090909090909,4,1,1,76,0,0
60722,-90.9090909090909,4,1,1,85,0,0
61068,-90.9090909090909,4,1,1,95,0,1
61197,-90.9090909090909,4,1,2,88,0,1
61283,-90.9090909090909,4,1,1,95,0,1
62568,-90.9090909090909,4,1,2,88,0,1
62654,-90.9090909090909,4,1,1,95,0,1
63254,-90.9090909090909,4,1,2,88,0,1
63340,-90.9090909090909,4,1,1,95,0,1
63940,-90.9090909090909,4,1,2,88,0,1
64025,-90.9090909090909,4,1,1,95,0,1
65311,-90.9090909090909,4,1,2,88,0,1
65397,-90.9090909090909,4,1,1,95,0,1
65997,-90.9090909090909,4,1,2,88,0,1
66083,-90.9090909090909,4,1,1,95,0,1
68054,-90.9090909090909,4,1,2,88,0,1
68140,-90.9090909090909,4,1,1,95,0,1
68740,-90.9090909090909,4,1,2,88,0,1
68825,-90.9090909090909,4,1,1,95,0,1
69425,-90.9090909090909,4,1,2,88,0,1
69511,-90.9090909090909,4,1,1,95,0,1
69768,-90.9090909090909,4,1,2,88,0,1
69854,-90.9090909090909,4,1,1,95,0,1
70797,-90.9090909090909,4,1,2,88,0,1
70883,-90.9090909090909,4,1,1,95,0,1
71483,-90.9090909090909,4,1,2,88,0,1
71568,-90.9090909090909,4,1,1,95,0,1
72039,-90.9090909090909,4,1,1,95,0,0
77010,-66.6666666666667,4,1,1,95,0,0
77525,-90.9090909090909,4,1,1,95,0,0
79025,-90.9090909090909,4,1,2,88,0,0
79111,-90.9090909090909,4,1,1,95,0,0
79711,-90.9090909090909,4,1,2,88,0,0
79797,-90.9090909090909,4,1,1,95,0,0
81768,-90.9090909090909,4,1,2,88,0,0
81854,-90.9090909090909,4,1,1,95,0,0
82454,-90.9090909090909,4,1,2,88,0,0
82540,-90.9090909090909,4,1,1,95,0,0
83140,-90.9090909090909,4,1,2,88,0,0
83225,-90.9090909090909,4,1,1,95,0,0
83825,-90.9090909090909,4,1,2,88,0,0
83911,-90.9090909090909,4,1,1,95,0,0
84511,-90.9090909090909,4,1,2,88,0,0
84597,-90.9090909090909,4,1,1,95,0,0
85197,-90.9090909090909,4,1,2,88,0,0
85283,-90.9090909090909,4,1,1,95,0,0
85883,-90.9090909090909,4,1,2,88,0,0
85968,-90.9090909090909,4,1,1,95,0,0
86568,-90.9090909090909,4,1,2,88,0,0
86654,-90.9090909090909,4,1,1,95,0,0
87083,-90.9090909090909,4,1,1,55,0,0
87254,-90.9090909090909,4,1,1,65,0,0
87425,-90.9090909090909,4,1,1,75,0,0
87597,-90.9090909090909,4,1,1,85,0,0
87768,-90.9090909090909,4,1,1,95,0,0
89997,-90.9090909090909,4,1,2,88,0,0
90083,-90.9090909090909,4,1,1,95,0,0
90683,-90.9090909090909,4,1,2,88,0,0
90768,-90.9090909090909,4,1,1,95,0,0
91368,-90.9090909090909,4,1,2,88,0,0
91454,-90.9090909090909,4,1,1,95,0,0
92740,-90.9090909090909,4,1,2,88,0,0
92825,-90.9090909090909,4,1,1,95,0,0
93425,-90.9090909090909,4,1,2,88,0,0
93511,-90.9090909090909,4,1,1,95,0,0
99640,-90.9090909090909,4,2,0,95,0,0
100754,-90.9090909090909,4,1,1,95,0,0
100925,-90.9090909090909,4,2,0,95,0,0
101097,-90.9090909090909,4,1,1,95,0,0
101268,-90.9090909090909,4,2,0,95,0,0
101440,-90.9090909090909,4,1,1,95,0,0
101525,-90.9090909090909,4,1,1,80,0,0
113183,-90.9090909090909,4,2,1,95,0,0
119354,-90.9090909090909,4,2,1,55,0,0
119440,-90.9090909090909,4,2,1,60,0,0
119526,-90.9090909090909,4,2,1,65,0,0
119611,-90.9090909090909,4,2,1,70,0,0
119697,-90.9090909090909,4,2,1,75,0,0
119783,-90.9090909090909,4,2,1,80,0,0
119868,-90.9090909090909,4,2,1,85,0,0
119954,-90.9090909090909,4,2,1,90,0,0
120040,-90.9090909090909,4,2,1,95,0,0
120726,-90.9090909090909,4,2,1,55,0,0
120811,-90.9090909090909,4,2,1,60,0,0
120897,-90.9090909090909,4,2,1,65,0,0
120983,-90.9090909090909,4,2,1,70,0,0
121068,-90.9090909090909,4,2,1,75,0,0
121154,-90.9090909090909,4,2,1,80,0,0
121240,-90.9090909090909,4,2,1,85,0,0
121326,-90.9090909090909,4,2,1,90,0,0
121411,-90.9090909090909,4,2,1,95,0,0
125525,-90.9090909090909,4,2,1,87,0,0
128183,-200,4,2,1,87,0,0
128311,-200,4,2,0,30,0,0
129640,-200,4,2,0,20,0,0
129810,-200,4,2,0,15,0,0
130325,-200,4,2,0,25,0,0
130667,-200,4,2,0,35,0,0
131010,-200,4,2,0,45,0,0
131353,-200,4,2,0,55,0,0
131696,-200,4,2,0,65,0,0
132039,-200,4,2,1,95,0,0

[Colours]
Combo1 : 231,220,220
Combo2 : 230,0,0

[HitObjects]
124,48,2784,2,0,B|124:128,1,80,6|8
124,128,3298,1,0
124,128,3469,2,0,B|124:212|124:212|88:280,1,160,8|4
44,348,3984,1,8
44,348,4326,1,0
44,348,4498,6,0,B|124:348|124:348|196:312,1,160,8|0
260,264,5012,1,0
196,216,5183,2,0,B|260:160|260:160|335:160,1,160,12|6
416,160,5698,1,8
416,160,6041,1,0
416,160,6212,6,0,B|368:224|368:224|288:224,1,160,8|4
208,224,6726,1,8
208,224,7069,1,0
208,224,7241,2,0,B|208:144|208:144|244:124|244:124|252:108|244:88,1,160,8|8
236,68,7669,1,8
224,52,7755,1,8
144,48,7926,5,8
134,61,8012,1,8
125,74,8098,1,8
121,91,8183,1,8
120,108,8269,6,0,B|148:145,3,43.9999986886979,6|0|8|0
108,196,8612,2,0,B|148:213,3,43.9999986886979,4|0|8|0
204,176,8955,2,0,B|248:188,3,43.9999986886979,4|0|8|0
276,244,9298,2,0,B|328:240,3,43.9999986886979,4|0|8|0
360,292,9641,6,0,B|312:316,7,43.9999986886979,6|0|8|0|4|0|8|0
256,312,10326,2,0,B|212:328,7,43.9999986886979,4|0|8|0|4|0|8|0
172,276,11012,6,0,B|232:264,3,43.9999986886979,6|0|8|0
246,208,11355,6,0,B|202:216,3,43.9999986886979,4|0|8|0
156,169,11698,6,0,B|216:157,3,43.9999986886979,4|0|8|0
239,109,12041,6,0,B|195:117,3,43.9999986886979,4|0|8|0
156,64,12384,6,0,B|244:44,1,87.9999973773957,6|8
348,48,12726,2,0,B|260:32,1,87.9999973773957,4|8
176,8,13069,5,6
155,15,13155,1,0
135,25,13241,1,8
117,38,13326,1,0
103,55,13412,1,4
91,73,13498,1,0
82,93,13584,1,8
76,114,13669,1,0
73,135,13755,1,6
417,68,14441,5,4
247,270,14784,5,4
340,160,15469,5,4
170,362,15812,5,4
256,20,16498,5,4
256,192,16584,12,4,19584
128,260,19926,2,0,B|176:276|216:244,1,87.9999973773957,6|8
288,196,20268,2,0,B|260:156|216:152,1,87.9999973773957,0|8
108,148,20611,5,0
128,260,20783,1,8
240,236,20954,1,0
225,119,21126,1,8
328,60,21297,6,0,B|440:72|496:188|448:292,1,263.999992132187,4|8
452,296,21897,1,0
420,324,21983,2,0,B|320:372|200:308|196:200,1,263.999992132187,4|8
216,168,22668,1,4
164,216,22840,1,8
232,160,23011,6,0,B|304:224,1,87.9999973773957,0|8
156,232,23354,2,0,B|80:164,1,87.9999973773957,0|8
248,152,23697,1,0
296,56,23868,1,8
340,44,23954,1,0
380,48,24040,6,0,B|424:84|388:136|400:204|324:112|292:216|336:272,1,263.999992132187,4|8
356,356,24726,2,0,B|297:367|222:367|185:290|267:247|314:292|280:365|212:335,1,263.999992132187,4|8
128,304,25411,5,4
108,292,25497,1,0
96,272,25583,1,8
96,248,25668,1,0
88,224,25754,1,0
72,204,25840,1,0
52,192,25926,1,8
48,168,26011,1,0
48,144,26097,2,0,B|52:88|96:68,3,87.9999973773957,0|8|0|8
168,32,26783,6,0,B|207:1|278:29|306:97|249:178|185:157,1,263.999992132187,4|8
144,139,27383,1,0
104,121,27468,2,0,B|58:88|-11:132|-13:188|12:227|56:266|120:230|128:205,1,263.999992132187,0|8
188,180,28154,1,4
207,165,28240,1,0
230,159,28326,1,8
253,166,28411,1,0
274,176,28497,1,0
298,176,28583,1,0
321,179,28668,1,8
343,170,28754,1,0
364,156,28840,6,0,B|400:128,3,43.9999986886979,0|0|8|0
384,88,29183,2,0,B|349:60,3,43.9999986886979,0|0|8|0
368,21,29526,6,0,B|370:5|425:0|429:21|434:41|488:37|486:21,2,131.999996066094,4|0|8
299,76,30211,2,0,B|296:91|242:96|237:76|232:55|178:60|180:76,2,131.999996066094,4|8|8
368,21,30897,5,12
144,112,35697,6,0,B|147:109|145:106|145:106|140:106|135:106|135:106|137:101|139:97|139:97|134:97|129:97|129:97|131:92|133:88|133:88|129:87|124:87|124:87|126:83|128:78|128:78|123:78|118:78|118:78|120:74|122:69|122:69|117:69|112:69|112:69|114:64|116:60|116:60|111:60|106:59|106:59|104:56|108:54,2,119.999996423721
156,132,36125,1,0
168,152,36211,1,0
180,172,36297,1,0
192,192,36383,6,0,B|216:232,3,43.9999986886979,4|0|8|0
232,192,36725,2,0,B|256:232,3,43.9999986886979,0|0|8|0
164,192,37068,6,0,B|184:232,3,43.9999986886979,0|0|8|0
264,192,37411,2,0,B|288:232,3,43.9999986886979,0|0|8|0
264,192,37754,6,0,B|180:180|168:104|192:60,1,175.999994754791,4|0
260,108,38268,1,8
329,152,38440,2,0,B|356:104|336:36|256:24,1,175.999994754791,4|0
168,24,38954,1,8
124,24,39040,1,0
80,32,39125,6,0,B|32:48|16:96,1,87.9999973773957,4|8
48,172,39468,1,0
136,192,39640,1,8
72,252,39811,1,0
156,272,39983,1,8
200,260,40068,1,0
244,248,40154,2,0,B|292:244|328:272,1,87.9999973773957,0|8
384,340,40497,6,0,B|456:336|468:289|468:289|448:263|464:220,1,175.999994754791,4|0
496,140,41011,1,8
464,56,41183,6,0,B|392:60|379:106|379:106|399:132|384:176,1,175.999994754791,4|0
352,256,41697,1,8
296,324,41868,6,0,B|257:341|220:320|200:328|200:328|192:312|168:304,1,131.999996066094,4|0
72,224,42383,1,8
156,192,42554,2,0,B|194:174|231:196|251:188|251:188|259:204|277:209,1,131.999996066094
388,284,43068,1,8
468,320,43240,2,0,B|488:272|468:224|424:204,1,131.999996066094,4|0
300,192,43754,2,0,B|252:204|212:176,1,87.9999973773957,8|0
32,12,44268,5,8
152,44,44440,1,8
161,48,44525,1,8
169,55,44611,2,0,B|237:55|296:78,2,131.999996066094,12|0|8
84,80,45297,2,0,B|44:100|24:152|44:204|84:224,2,175.999994754791,0|0|8
236,172,46154,5,8
368,288,46326,1,8
296,128,46497,1,8
468,152,46668,5,8
296,192,46840,1,8
436,84,47011,1,8
356,240,47183,1,8
376,36,47354,5,6
354,31,47440,1,0
331,31,47525,1,8
309,26,47611,1,0
292,32,47697,1,0
269,32,47783,1,0
248,25,47868,1,8
226,28,47954,1,0
207,39,48040,1,0
185,43,48125,1,0
163,42,48211,1,8
154,62,48297,1,0
142,80,48383,1,0
120,92,48468,1,0
120,116,48554,1,8
101,128,48640,1,8
90,147,48725,6,0,B|43:132,7,43.9999986886979,4|0|8|0|0|0|8|0
120,204,49411,2,0,B|73:188,7,43.9999986886979,0|0|8|0|0|0|8|0
144,248,50097,6,0,B|192:264,7,43.9999986886979,4|0|8|0|0|0|8|0
236,304,50783,2,0,B|276:284,7,43.9999986886979,0|0|8|0|0|0|8|0
296,291,51468,5,6
317,285,51554,1,0
338,279,51640,1,8
343,258,51725,1,0
353,238,51811,1,0
351,216,51897,1,0
354,194,51983,1,8
348,172,52068,1,0
336,151,52154,6,0,B|276:148|248:152|248:152|224:160|172:200,1,175.999994754791
108,256,52668,1,8
336,152,52840,6,0,B|306:167|306:167|299:190|299:190|274:204,1,87.9999973773957,4|0
124,304,53183,6,0,B|153:288|153:288|160:265|160:265|185:251,1,87.9999973773957,8|0
316,132,53525,6,0,B|293:157|293:157|294:181|294:181|275:202,1,87.9999973773957,4|0
168,347,53868,6,0,B|190:321|190:321|189:297|189:297|208:276,1,87.9999973773957,8|0
296,120,54211,6,0,B|272:204,1,87.9999973773957,4|0
224,376,54554,6,0,B|248:292,1,87.9999973773957,8|0
276,112,54897,6,0,B|274:199,1,87.9999973773957,4|0
272,378,55240,6,0,B|274:290,1,87.9999973773957,8|0
276,112,55583,5,4
304,284,55925,5,8
231,24,56268,5,4
320,256,56611,5,8
216,52,56954,5,4
340,224,57297,5,8
204,84,57640,5,4
352,184,57983,5,8
209,118,58325,5,4
259,103,58497,1,0
306,122,58668,1,0
337,164,58840,1,0
337,215,59011,1,0
310,257,59183,1,0
263,277,59354,1,0
213,265,59525,1,0
178,226,59697,1,8
174,176,59868,1,0
198,130,60040,1,8
240,106,60211,1,0
293,112,60383,5,12
324,144,60468,1,0
336,188,60554,1,8
324,232,60640,1,0
292,264,60725,1,8
248,272,60811,1,8
208,260,60897,1,8
176,228,60983,1,8
168,184,61068,6,0,B|188:68|316:68,1,175.999994754791,4|0
416,60,61583,1,8
52,298,61925,2,0,B|72:182|200:182,1,175.999994754791,8|8
392,260,62440,2,0,B|353:211|266:221|257:260|247:298|161:308|121:260,1,263.999992132187,4|8
20,164,63125,2,0,B|128:132|220:200|228:316,1,263.999992132187,4|8
232,324,63725,1,0
216,364,63811,6,0,B|96:368|76:244,1,175.999994754791,4|0
72,140,64325,1,8
160,200,64497,1,0
56,192,64668,5,8
152,144,64840,1,0
140,248,65011,1,8
36,244,65183,2,0,B|28:337|97:409|183:362|183:280,1,263.999992132187,4|8
113,293,65868,6,0,B|112:361|198:408|266:336|259:242,1,263.999992132187,4|8
264,204,66468,1,8
240,168,66554,2,0,B|192:144|140:160,2,87.9999973773957,12|8|0
308,224,67068,6,0,B|316:276|364:304,1,87.9999973773957,8|0
376,308,67325,1,0
401,308,67411,1,8
425,301,67497,1,0
442,282,67583,1,0
442,257,67668,1,0
433,233,67754,1,8
417,213,67840,1,0
396,200,67925,6,0,B|320:192|280:260,1,131.999996066094,4|0
384,316,68440,1,8
364,208,68611,2,0,B|304:120|188:132,1,175.999994754791
128,140,69125,1,8
48,176,69297,6,0,B|47:243|138:308|250:314|292:259,1,307.999990820885,4|0
308,244,69983,1,0
323,224,70068,1,0
334,201,70154,1,8
337,176,70240,1,0
334,151,70325,1,0
324,128,70411,1,0
308,108,70497,1,8
287,92,70583,1,0
263,82,70668,6,0,B|219:81|187:90|187:90|143:80|126:51,1,131.999996066094,4|0
232,158,71183,1,8
312,98,71354,2,0,B|344:58|392:42|392:42|432:42|456:22,2,131.999996066094,4|0|8
260,168,72040,6,0,B|204:236|204:236|116:236,1,175.999994754791,6|8
48,176,72554,2,0,B|108:176|108:176|120:116|72:72,1,175.999994754791,8|8
72,72,73240,1,8
160,76,73411,2,0,B|196:92|232:128|232:128|268:92|308:76,1,175.999994754791,4|8
396,60,73925,2,0,B|320:20|320:20|268:18|221:41,1,175.999994754791,8|12
468,344,74783,5,6
296,316,75125,2,8,B|252:308|252:308|216:280,1,87.9999973773957,0|8
80,168,75640,1,8
336,104,76154,2,0,B|248:104|248:104|164:72,1,175.999994754791,4|8
88,28,76668,1,8
88,306,77011,6,0,B|93:314|104:307|104:307|104:292|104:277|104:277|117:283|131:289|131:289|131:274|131:260|131:260|144:266|158:271|158:271|159:257|159:241|159:241|172:248|185:254|185:254|185:238|186:224|186:224|199:230|213:235|213:235|213:221|213:207|213:207|227:212|240:218|240:218|240:204|240:188|240:188|250:182|258:193,1,359.999989271164,4|4
344,168,77697,5,8
280,108,77868,2,0,B|328:80,3,43.9999986886979,0|0|8|0
316,40,78211,2,0,B|220:28,1,87.9999973773957,0|8
140,24,78554,2,0,B|104:49,3,43.9999986886979,0|0|8|0
68,76,78897,2,0,B|56:168|196:168,1,175.999994754791,4|0
276,168,79411,1,8
188,168,79583,6,0,B|56:167|68:259,1,175.999994754791
84,344,80097,1,8
172,348,80268,2,0,B|200:308|240:296,1,87.9999973773957,4|8
344,292,80611,2,0,B|316:252|276:240,1,87.9999973773957,0|8
192,212,80954,1,0
178,209,81040,1,0
165,204,81125,1,8
153,197,81211,1,0
143,188,81297,1,0
135,177,81383,1,0
130,164,81468,1,8
130,150,81554,1,0
133,137,81640,2,0,B|224:88|300:160,1,175.999994754791,4|0
360,216,82154,1,8
280,248,82325,6,0,B|179:270|169:374,1,175.999994754791
170,368,82840,1,8
170,368,83011,2,0,B|238:396|294:352,1,131.999996066094,4|0
380,256,83525,1,8
380,256,83697,2,0,B|370:183|304:156,1,131.999996066094
172,156,84211,1,8
172,156,84383,2,0,B|113:200|123:271,1,131.999996066094,4|0
228,352,84897,1,8
228,352,85068,6,0,B|280:308|276:232,1,131.999996066094
275,212,85411,1,0
272,190,85497,1,0
268,168,85583,1,8
261,147,85668,1,8
252,128,85754,2,0,B|214:75|154:62|96:95,1,175.999994754791,4|0
168,148,86268,1,8
252,128,86440,6,0,B|315:119|355:72|353:5,1,175.999994754791
272,40,86954,1,0
252,128,87126,5,8
320,240,87297,1,8
188,240,87468,1,8
252,91,87640,5,8
354,260,87811,1,8
156,260,87983,1,8
252,56,88154,5,0
252,56,88240,1,0
252,56,88325,1,0
252,56,88411,1,0
252,56,88497,6,0,B|208:56|168:80,2,87.9999973773957,6|8|0
296,60,88926,1,0
340,72,89011,1,8
376,96,89097,1,0
400,136,89183,2,0,B|440:160|484:156,2,87.9999973773957,0|8|0
356,128,89611,1,0
312,132,89697,1,8
272,148,89783,1,0
236,176,89868,6,0,B|276:256|388:252,1,175.999994754791,4|0
472,244,90383,1,8
420,172,90554,2,0,B|356:136|268:176|232:336,1,263.999992132187,0|8
239,310,91240,6,0,B|339:338|399:266,1,175.999994754791,4|0
428,234,91668,1,0
449,195,91754,1,8
456,151,91840,1,0
460,108,91926,2,0,B|496:76|496:28,2,87.9999973773957,0|8|0
420,124,92354,1,0
376,136,92440,1,8
332,132,92526,1,0
288,120,92611,6,0,B|262:128|228:124|216:84|216:84|164:44|117:84|103:63,1,175.999994754791,6|0
48,72,93126,1,8
96,144,93297,2,0,B|132:156|160:148|160:148|184:188|224:204|256:204,1,175.999994754791
340,204,93811,1,8
342,200,93897,1,8
346,196,93983,6,0,B|328:136|368:76|436:76,1,175.999994754791,4|8
436,76,94668,2,0,B|403:22|332:12|286:62,1,175.999994754791,4|8
286,321,95354,2,0,B|332:371|403:361|436:308,1,175.999994754791,4|8
468,44,96040,5,4
256,192,96383,1,8
468,348,96726,1,4
356,108,97068,1,8
100,44,97411,1,4
100,308,97754,1,8
296,132,98097,6,0,B|252:124|208:140,1,87.9999973773957,4|0
44,200,98440,2,0,B|88:192|132:208,1,87.9999973773957,8|0
296,268,98783,2,0,B|252:260|208:276,1,87.9999973773957,4|0
44,336,99126,2,0,B|88:328|132:344,1,87.9999973773957,8|0
304,368,99468,6,0,B|356:384|388:352,1,87.9999973773957,4|0
412,180,99811,2,0,B|360:164|328:196,1,87.9999973773957
188,300,100154,2,0,B|240:316|272:284,1,87.9999973773957
296,112,100497,2,0,B|244:96|212:128,1,87.9999973773957
132,232,100840,5,0
240,308,101011,1,0
360,252,101183,1,0
360,120,101354,1,0
252,44,101526,6,0,B|204:32,3,43.9999986886979
184,96,101868,6,0,B|152:100,6,29.3333324591319
256,192,107697,5,4
256,368,108383,1,4
256,192,109068,5,4
256,16,109754,1,4
96,192,110440,5,4
416,192,110954,5,4
96,192,111468,5,4
308,192,111811,5,4
96,192,112154,6,0,B|172:200|196:268,1,131.999996066094,8|8
220,304,112497,2,0,B|264:292,4,43.9999986886979,8|8|8|8|8
148,356,113011,1,8
104,356,113097,1,8
64,336,113183,6,0,B|8:296|16:216,2,131.999996066094,12|0|2
148,364,113868,2,0,B|256:364|292:284,1,175.999994754791,2|2
308,252,114297,1,2
320,220,114383,1,2
324,184,114468,1,2
320,148,114554,2,0,B|320:92|248:52|196:72|180:84,1,175.999994754791,6|0
156,100,114983,5,0
132,124,115068,1,0
116,156,115154,1,0
112,192,115240,1,0
124,224,115326,1,0
148,248,115411,1,0
184,256,115497,1,0
220,256,115583,1,0
252,244,115668,1,0
280,220,115754,1,0
292,188,115840,1,0
291,151,115926,2,0,B|291:100|249:67|207:67,1,131.999996066094,14|2
95,69,116440,1,2
88,144,116611,6,0,B|104:200|160:200|220:180|200:108|336:160,1,263.999992132187,2|2
364,172,117211,1,2
404,192,117297,2,0,B|465:211|483:282|435:333,1,175.999994754791,6|0
409,359,117726,1,0
375,371,117811,1,0
339,368,117897,1,0
306,355,117983,1,0
279,332,118068,1,0
262,300,118154,1,0
266,264,118240,1,0
277,230,118326,1,0
268,195,118411,1,0
242,170,118497,1,0
207,162,118583,1,0
172,163,118668,6,0,B|91:170|77:248,2,131.999996066094,14|0|0
260,156,119354,1,0
293,145,119440,1,0
318,120,119526,1,0
322,84,119611,1,0
304,53,119697,1,0
270,43,119783,1,0
236,51,119868,1,0
213,77,119954,1,0
198,108,120040,6,0,B|172:184|212:234,2,131.999996066094,14|0|0
249,36,120726,1,0
282,25,120811,1,0
317,27,120897,1,0
350,37,120983,1,0
378,56,121068,1,0
397,85,121154,1,0
400,120,121240,1,0
386,152,121326,1,0
356,172,121411,6,0,B|292:216|224:180,1,131.999996066094,12|0
284,92,121926,1,2
344,156,122097,2,0,B|400:208|360:280,1,131.999996066094
280,380,122611,1,2
192,372,122783,2,0,B|144:360,7,43.9999986886979
200,324,123468,6,0,B|266:275,7,43.9999986886979
168,256,124154,6,0,B|133:218,7,43.9999986886979,8|0|0|0|0|0|0|0
208,168,124840,6,0,B|224:124,7,43.9999986886979
228,112,125526,6,0,B|132:80,1,87.9999973773957,12|4
396,164,126040,5,6
396,164,126211,1,4
144,84,126554,6,0,B|48:116,1,87.9999973773957,6|4
316,44,127068,5,6
316,44,127240,1,4
508,192,127583,5,6
508,192,127754,1,4
256,192,128097,5,6
256,192,128268,2,0,B|256:217|211:280|124:240|104:176|140:112|192:84|252:84,1,320,4|0
256,192,129983,12,8,132040
