osu file format v9

[General]
AudioFilename: Ace Combat Zero Misson18 -Zero-.mp3
AudioLeadIn: 0
PreviewTime: 164450
Countdown: 0
SampleSet: Soft
StackLeniency: 0.3
Mode: 0
LetterboxInBreaks: 1

[Editor]
Bookmarks: 670,16279,31889,55304,63109,78708,94328,109938,125538,133708,141147,156757,164572,178230,193840,209440,221147,232855,242621,266025,273830,289450
DistanceSpacing: 1.4
BeatDivisor: 4
GridSize: 4

[Metadata]
Title:Zero
Artist:Keiki Kobayashi
Creator:atk1992
Version:Pixy
Source:Ace Combat
Tags:

[Difficulty]
HPDrainRate:6
CircleSize:5
OverallDifficulty:8
ApproachRate:9
SliderMultiplier:1.2
SliderTickRate:1

[Events]
//Background and Video events
0,0,"zero.png"
//Break Periods
//Storyboard Layer 0 (Background)
//Storyboard Layer 1 (Fail)
//Storyboard Layer 2 (Pass)
//Storyboard Layer 3 (Foreground)
//Storyboard Sound Samples
//Background Colour Transformations
3,100,163,162,255

[TimingPoints]
660,243.90243902439,4,2,1,60,1,0
29928,-100,4,2,1,70,0,0
31879,-100,4,2,1,60,0,1
63099,-200,4,2,2,40,0,0
69684,-200,4,2,2,30,0,0
70903,-200,4,2,2,40,0,0
77489,-200,4,2,2,50,0,0
77855,-200,4,2,2,40,0,0
78220,-200,4,2,2,30,0,0
78708,-200,4,2,2,40,0,0
86513,-200,4,2,2,50,0,0
89928,-200,4,2,2,30,0,0
90416,-200,4,2,2,40,0,0
91391,-200,4,2,2,50,0,0
93099,-200,4,2,2,30,0,0
94318,-200,4,2,2,50,0,0
95294,-200,4,2,2,40,0,0
104074,-200,4,2,2,50,0,0
106025,-200,4,2,2,30,0,0
108952,-200,4,2,2,50,0,0
109928,-100,4,1,1,50,0,0
111879,-100,4,1,1,40,0,0
117733,-100,4,2,1,50,0,0
124684,-100,4,1,1,50,0,0
125538,-100,4,2,1,50,0,0
132489,-100,4,1,1,50,0,0
133342,-100,4,2,1,50,0,0
134806,-100,4,1,1,50,0,0
136391,-100,4,2,1,50,0,0
137245,-100,4,1,1,50,0,0
139440,-100,4,2,1,40,0,0
146025,-100,4,1,1,40,0,0
147489,-100,4,1,1,50,0,0
154806,-100,4,2,1,50,0,0
157123,-100,4,1,1,50,0,0
164562,-100,4,1,1,50,0,0
177733,-200,4,2,1,50,0,0
178220,-100,4,2,1,60,0,1
179684,-100,4,2,1,50,0,1
208464,-200,4,2,1,60,0,1
209440,-100,4,2,1,60,0,0
225050,-100,4,2,1,60,0,1
242611,-200,4,2,2,40,0,0
269928,-200,4,2,2,50,0,0
273830,-200,4,2,2,60,0,0
275781,-200,4,2,2,40,0,0
282611,-200,4,2,2,50,0,0
283586,-200,4,2,2,60,0,0
284562,-200,4,2,2,70,0,0
285659,-200,4,2,2,50,0,0
286269,-200,4,2,2,60,0,0
287001,-200,4,2,2,70,0,0
287245,-200,4,2,2,30,0,0
288464,-200,4,2,2,50,0,0
289440,-100,4,2,1,80,0,1
289684,-100,4,2,1,60,0,0

[Colours]
Combo1 : 248,244,114
Combo2 : 132,22,19
Combo3 : 198,0,0
Combo4 : 187,51,0
Combo5 : 228,121,41
Combo6 : 238,191,49

[HitObjects]
256,192,14318,12,0,16025
396,184,16269,38,0,B|444:64,1,120,6|0
384,28,16635,2,0,B|256:48,1,120
288,116,17001,2,0,B|328:160,1,60
340,232,17245,6,0,B|300:348,1,120
232,364,17611,2,0,B|144:280,1,120
208,240,17977,2,0,B|280:224,1,60
308,168,18220,6,0,B|288:44,1,120
220,28,18586,2,0,B|124:104,1,120
176,156,18952,2,0,B|240:180,1,60
272,236,19196,70,0,B|248:364,1,120
180,380,19562,2,0,B|88:296,1,120
140,244,19928,2,0,B|196:228,1,60
240,168,20172,70,0,B|252:108,2,60,2|0|0
176,200,20538,2,0,B|96:104,1,120
148,52,20903,2,0,B|220:60,1,60
99,107,21147,6,0,B|68:168,2,60
168,124,21513,2,0,B|180:256,1,120
116,280,21879,2,0,B|76:236,1,60
178,243,22123,6,0,B|240:276,2,60
172,172,22489,2,0,B|296:132,1,120
328,192,22855,2,0,B|296:252,1,60
286,135,23099,70,0,B|240:76,2,60
248,196,23464,2,0,B|128:172,1,120,2|0
116,100,23830,2,0,B|188:68,1,60,0|0
236,44,24074,69,6
236,44,24196,1,0
236,44,24318,1,0
236,44,24440,2,0,B|372:64,1,120
424,84,24806,2,0,B|444:164,1,60
424,212,25050,5,0
424,212,25172,1,0
424,212,25294,1,0
424,212,25416,2,0,B|364:316,1,120
292,316,25781,2,0,B|228:304,1,60
160,316,26025,5,0
160,316,26147,1,0
160,316,26269,1,0
160,316,26391,2,0,B|68:224,1,120
44,164,26757,2,0,B|68:104,1,60
92,40,27001,69,0
92,40,27123,1,0
92,40,27245,1,0
92,40,27367,2,0,B|216:64,1,120
276,96,27733,2,0,B|276:156,1,60
244,220,27977,69,2
244,220,28099,1,0
244,220,28220,1,0
244,220,28342,2,0,B|316:336,1,120
307,321,28708,1,0
307,321,28830,1,0
376,296,28952,5,0
376,296,29074,1,0
376,296,29196,1,0
376,296,29318,2,0,B|472:220,1,120
470,221,29684,1,0
470,221,29806,1,0
448,152,29928,5,0
448,152,30050,1,0
448,152,30172,1,0
448,152,30294,2,0,B|408:32,1,120
410,38,30659,1,0
410,38,30781,1,0
340,48,30903,69,10
340,48,31025,1,0
340,48,31147,1,0
268,56,31269,2,0,B|144:68,1,120,10|0
76,72,31635,1,0
76,72,31757,1,0
68,320,31879,69,14
68,320,32001,1,0
68,320,32123,1,0
68,320,32245,1,0
68,320,32367,1,0
68,320,32489,1,0
68,320,32611,1,0
68,320,32733,1,0
68,320,32855,22,0,B|200:296,1,120,8|0
186,298,33220,2,0,B|304:312,1,120,8|0
305,312,33586,1,0
305,312,33708,1,0
440,192,33830,69,8
440,192,33952,1,0
440,192,34074,1,0
440,192,34196,1,0
440,192,34318,1,0
440,192,34440,1,0
440,192,34562,1,0
440,192,34684,1,0
440,192,34806,5,2
372,212,34928,1,0
308,180,35050,1,0
240,160,35172,2,0,B|184:140|120:160,1,120,10|0
72,212,35538,2,0,B|96:236|128:232,1,60,8|0
40,40,35781,53,6
40,40,35903,1,0
40,40,36025,1,0
40,40,36147,1,0
40,40,36269,1,0
40,40,36391,1,0
40,40,36513,1,0
40,40,36635,1,0
40,40,36757,22,0,B|156:64,1,120,8|0
157,64,37123,2,0,B|276:40,1,120,8|0
275,40,37489,1,0
275,40,37611,1,0
404,168,37733,70,0,B|276:200,1,120,8|0
287,197,38099,2,0,B|163:175,1,120,8|0
169,176,38464,1,0
169,176,38586,1,0
44,308,38708,6,0,B|160:332,1,120,8|0
161,332,39074,2,0,B|280:308,1,120,8|0
279,308,39440,1,0
279,308,39562,1,0
460,332,39684,53,6
460,332,39806,1,0
460,332,39928,1,0
460,332,40050,1,0
460,332,40172,1,0
460,332,40294,1,0
460,332,40416,1,0
460,332,40538,1,0
460,332,40659,22,0,B|436:212,1,120,8|0
436,214,41025,2,0,B|464:88,1,120,8|0
462,97,41391,1,0
462,97,41513,1,0
292,36,41635,69,8
292,36,41757,1,0
292,36,41879,1,0
292,36,42001,1,0
292,36,42123,1,0
292,36,42245,1,0
292,36,42367,1,0
292,36,42489,1,0
292,36,42611,6,0,B|244:160,1,120,10|0
248,147,42977,2,0,B|280:284,1,120,10|0
275,264,43342,1,0
275,264,43464,1,0
112,340,43586,53,6
112,340,43708,1,0
112,340,43830,1,0
112,340,43952,1,0
112,340,44074,1,0
112,340,44196,1,0
112,340,44318,1,0
112,340,44440,1,0
112,340,44562,22,0,B|68:224,1,120,8|0
69,227,44928,2,0,B|112:108,1,120,8|0
109,114,45294,1,0
109,114,45416,1,0
284,68,45538,70,0,B|244:184,1,120,8|0
244,181,45903,2,0,B|295:295,1,120,8|0
292,290,46269,1,0
292,290,46391,1,0
464,236,46513,6,0,B|416:128,1,120,8|0
415,126,46879,2,0,B|472:12,1,120,8|0
468,18,47245,1,0
468,18,47367,1,0
256,40,47489,53,6
256,40,47611,1,0
256,40,47733,1,0
256,40,47855,1,0
256,40,47977,1,0
256,40,48099,1,0
256,40,48220,1,0
256,40,48342,1,0
256,40,48464,22,0,B|132:52,1,120,8|0
172,116,48830,2,0,B|48:128,1,120,8|0
88,192,49196,2,0,B|20:200,1,60
72,344,49440,53,8
72,344,49562,1,0
72,344,49684,1,0
72,344,49806,1,0
72,344,49928,1,0
72,344,50050,1,0
72,344,50172,1,0
72,344,50294,1,0
72,344,50416,21,10
136,312,50538,1,0
208,312,50659,1,0
272,344,50781,2,0,B|340:344|340:344|384:308,1,120,10|0
436,264,51147,2,0,B|436:204,1,60,8|0
476,40,51391,69,6
476,40,51513,1,0
476,40,51635,1,0
476,40,51757,1,0
476,40,51879,1,0
476,40,52001,1,0
476,40,52123,1,0
476,40,52245,1,0
476,40,52367,6,0,B|352:40,1,120,8|0
316,100,52733,2,0,B|180:100,1,120,8|0
156,40,53099,1,0
156,40,53220,1,0
36,168,53342,70,0,B|160:168,1,120,8|0
196,228,53708,2,0,B|332:228,1,120,8|0
356,168,54074,1,0
356,168,54196,1,0
476,296,54318,6,0,B|352:296,1,120,8|0
316,356,54684,2,0,B|180:356,1,120,8|0
156,296,55050,1,0
156,296,55172,1,0
56,56,55294,53,6
56,56,55416,1,0
56,56,55538,1,0
56,56,55659,1,0
56,56,55781,1,0
56,56,55903,1,0
56,56,56025,1,0
56,56,56147,1,0
56,56,56269,22,0,B|100:88|100:88|100:168,1,120,8|0
100,228,56635,2,0,B|100:300|100:300|144:332,1,120,8|0
212,328,57001,1,0
212,328,57123,1,0
452,328,57245,69,8
452,328,57367,1,0
452,328,57489,1,0
452,328,57611,1,0
452,328,57733,1,0
452,328,57855,1,0
452,328,57977,1,0
452,328,58099,1,0
452,328,58220,6,0,B|452:264,1,60,10|0
448,196,58464,1,0
376,196,58586,2,0,B|330:157|330:157|330:97,1,120,10|0
328,24,58952,1,8
328,24,59074,1,0
328,360,59196,53,6
328,360,59318,1,0
328,360,59440,1,0
328,360,59562,1,0
328,360,59684,1,0
328,360,59806,1,0
328,360,59928,1,0
328,360,60050,1,0
328,288,60172,22,0,B|264:288|264:288|224:240,1,120,8|0
296,216,60538,2,0,B|368:216|368:216|392:176,1,120,8|0
328,148,60903,1,0
328,76,61025,1,0
64,196,61147,69,10
64,268,61269,2,0,B|64:328,1,60,8|0
136,328,61513,2,0,B|136:264|136:264|184:220,1,120,8|0
248,228,61879,1,0
320,228,62001,1,0
452,64,62123,69,10
396,112,62245,2,0,B|332:112,1,60,8|0
280,64,62489,2,0,B|220:64|220:64|168:96,1,120,10|0
168,168,62855,1,0
168,240,62977,1,0
168,312,63099,38,0,B|256:344|344:312,1,180,4|0
344,312,64074,1,2
372,80,65050,22,0,B|256:28|128:84,1,240,0|8
108,316,66757,53,4
108,316,67001,2,0,B|196:356|292:336,1,180,4|0
404,316,67977,1,2
432,76,68952,22,0,B|344:44|256:76,1,180,0|8
136,76,69928,2,0,B|96:64,1,30,0|8
100,192,70294,2,0,B|64:192,1,30,0|0
136,308,70659,2,0,B|96:320,1,30,4|0
136,308,70903,54,0,B|228:292|316:308,1,180,4|0
436,328,71879,1,2
436,60,72855,22,0,B|352:88|256:60,1,180,0|0
144,32,73830,1,8
60,192,74196,1,0
144,352,74562,1,0
144,352,74684,1,0
144,352,74806,54,0,B|264:352,1,120,4|0
384,352,75538,1,0
384,352,75781,1,2
416,36,76757,22,0,B|360:72,1,60
304,68,77123,2,0,B|256:32,1,60
196,32,77489,1,0
196,168,77733,1,0
256,168,77855,2,0,B|304:132,1,60
365,131,78220,2,0,B|416:164,1,60,4|0
476,164,78586,1,0
476,224,78708,53,4
312,300,79074,1,0
148,224,79440,1,0
28,224,79684,1,8
200,84,80659,21,0
312,84,81635,1,2
476,228,82367,53,4
476,228,82611,1,4
104,288,83342,1,0
36,228,83586,1,8
48,48,84562,22,0,B|140:72|192:152,1,180
296,88,85538,2,0,B|328:68,1,30,2|0
456,192,86025,53,4
372,280,86269,1,0
256,312,86513,1,4
48,192,87489,1,0
256,72,88464,21,2
480,196,89928,1,4
460,208,90050,1,0
436,212,90172,1,0
416,208,90294,1,0
400,192,90416,53,4
380,232,90538,1,0
348,260,90659,1,0
304,272,90781,1,0
260,272,90903,1,0
216,260,91025,1,0
184,232,91146,1,0
164,192,91268,1,0
144,152,91391,22,0,B|116:88,1,60,8|0
76,92,91757,2,0,B|100:146,1,60,0|0
120,188,92123,1,0
60,52,92367,2,0,B|136:52|160:136|220:136,1,180,4|0
256,52,93342,54,0,B|256:28,15,15
276,88,94318,1,6
312,116,94440,1,0
356,128,94562,1,0
400,116,94684,2,0,B|428:132|436:168,1,60
444,208,95050,1,0
404,320,95294,1,2
108,320,96269,22,0,B|132:236|84:140,1,180
36,36,97245,1,8
416,280,97977,53,4
416,280,98220,1,4
96,280,99196,21,2
256,68,100172,53,0
392,68,100538,1,0
444,192,100903,1,0
396,268,101147,1,0
396,268,101269,1,0
312,300,101513,1,0
312,300,101635,2,0,B|284:292|252:300,1,60,0|0
164,316,102123,21,4
380,264,103099,53,2
104,212,104074,21,4
436,160,105050,53,2
48,108,106025,22,0,B|120:48|228:4|352:4|452:48,1,420
444,44,107977,53,0
256,192,108099,12,0,109684
300,236,109928,37,14
300,236,110050,1,0
300,236,110172,1,0
300,236,110294,1,0
300,236,110416,1,0
300,236,110538,1,0
300,236,110659,1,10
300,236,110781,1,0
300,236,110903,1,0
300,236,111025,1,0
300,236,111147,1,0
300,236,111269,1,0
300,236,111391,1,8
300,236,111513,1,0
300,236,111635,1,0
300,236,111757,1,0
428,52,111879,5,10
428,52,112001,1,0
428,52,112123,1,0
428,52,112245,1,0
428,52,112367,6,0,B|484:80,1,60,0|0
404,232,112611,69,10
404,232,112733,1,0
404,232,112855,1,0
404,232,112977,1,0
404,232,113099,1,0
404,232,113220,1,0
404,232,113342,6,0,B|348:248,1,60,8|0
108,152,113586,2,0,B|164:136,1,60
84,332,113830,53,10
84,332,113952,1,0
84,332,114074,1,0
84,332,114196,1,0
84,332,114318,1,0
84,332,114440,1,0
84,332,114562,21,10
132,256,114684,1,0
132,256,114806,69,0
132,256,114928,1,0
132,256,115050,1,0
132,256,115172,1,0
196,192,115294,69,8
196,192,115416,1,0
132,128,115538,5,0
132,128,115659,1,0
84,52,115781,69,10
84,52,115903,1,0
84,52,116025,21,0
132,128,116147,1,0
224,128,116269,1,0
272,52,116391,1,0
364,52,116513,1,10
412,128,116635,1,0
460,204,116757,1,0
412,280,116879,1,10
348,216,117001,1,0
300,292,117123,1,8
236,228,117245,1,8
188,304,117367,1,0
124,240,117489,1,8
76,316,117611,1,0
76,316,117733,54,0,B|196:304,1,120,6|0
256,236,118099,2,0,B|376:224,1,120,8|0
436,160,118464,2,0,B|316:148,1,120,2|0
256,80,118830,2,0,B|136:68,1,120,8|0
48,84,119196,2,0,B|48:144,1,60,6|0
48,236,119440,2,0,B|48:300,1,60,10|0
136,316,119684,6,0,B|228:220,1,120,6|0
256,312,120050,2,0,B|348:216,1,120,8|0
408,164,120416,2,0,B|316:68,1,120,2|0
288,160,120782,2,0,B|196:64,1,120,8|0
116,96,121147,2,0,B|84:148,1,60,6|0
84,236,121391,2,0,B|116:288,1,60,2|0
396,288,121635,6,0,B|480:176,1,120,6|0
468,192,122001,1,8
396,136,122123,53,0
396,136,122245,1,0
396,136,122367,1,2
396,136,122489,1,0
328,196,122611,5,0
328,196,122733,1,0
328,196,122855,1,0
328,196,122977,1,0
256,328,123099,6,0,B|188:328,1,60,6|0
144,156,123342,2,0,B|68:156,1,60,8|0
28,328,123586,2,0,B|88:328,1,60,6|0
144,256,123830,53,0
144,256,123952,1,0
144,256,124074,1,8
144,256,124196,1,0
256,56,124318,22,0,B|316:56,1,60,2|0
280,140,124562,1,0
280,140,124684,2,0,B|400:140,1,120,8|8
436,224,125050,2,0,B|368:224,1,60,6|0
480,304,125294,2,0,B|412:304,1,60,8|0
328,304,125537,53,6
328,304,125780,1,0
184,304,125903,5,8
184,304,126146,1,0
328,224,126268,69,2
328,224,126513,1,0
184,224,126634,5,8
184,224,126879,1,0
328,144,127001,69,6
328,144,127245,1,0
184,64,127367,5,2
184,64,127611,1,0
184,144,127733,1,8
184,144,127977,1,0
328,64,128099,69,2
328,64,128342,1,0
256,180,128464,5,8
256,180,128708,1,0
256,28,128830,69,6
256,28,129074,1,0
256,28,129318,1,0
328,144,129440,5,6
328,144,129684,1,0
184,144,129806,69,8
184,144,130050,1,0
424,144,130294,5,2
424,144,130538,1,0
88,144,130781,5,8
88,144,131025,1,2
256,28,131269,53,0
256,28,131391,1,2
316,64,131513,5,0
376,100,131635,5,0
256,100,131757,53,8
196,136,131879,5,0
136,172,132001,5,8
256,172,132123,53,2
316,208,132245,5,0
376,244,132367,5,0
256,244,132489,53,8
196,280,132611,5,0
136,316,132733,5,8
256,316,132855,69,14
256,316,132977,1,0
376,316,133099,69,8
376,316,133220,1,0
460,192,133342,21,6
460,192,133464,1,0
460,192,133586,1,0
460,192,133708,54,0,B|336:192,1,120,8|0
340,192,134074,1,2
256,160,134196,5,0
256,160,134318,1,0
256,160,134440,1,0
256,160,134562,1,0
256,160,134684,1,0
256,160,134806,1,8
256,160,134928,1,0
256,160,135050,1,0
256,160,135172,1,0
144,336,135294,5,12
144,336,135416,1,0
144,336,135538,1,0
144,336,135659,1,0
144,336,135781,1,0
144,336,135903,1,0
32,160,136025,69,10
32,160,136147,1,0
32,160,136269,1,0
32,68,136391,69,8
32,68,136757,1,12
108,116,136879,1,0
184,164,137001,1,0
256,216,137123,1,0
328,164,137245,2,0,B|440:96,1,120,14|0
392,184,137611,21,8
172,344,137855,1,8
256,84,138098,1,0
340,344,138342,1,8
120,184,138586,1,0
76,104,138708,69,6
76,104,138830,1,8
76,104,138952,1,0
76,104,139074,1,8
76,280,139196,69,14
76,280,139318,1,0
76,280,139440,1,8
76,280,139623,21,8
212,232,139806,1,0
184,92,139989,1,2
328,92,140172,1,8
300,232,140355,1,0
436,280,140538,1,0
380,356,140659,1,14
256,320,140822,1,0
132,356,140985,1,0
112,219,141147,38,0,B|68:240|44:276,1,90,14|0
112,220,141513,2,0,B|88:282|98:338,1,120,0|0
112,220,141879,53,10
399,219,142123,22,0,B|444:240|468:276,1,90,12|0
400,220,142489,2,0,B|425:281|413:345,1,120,2|0
400,220,142855,53,8
169,157,143099,22,0,B|145:121|101:101,1,90,14|0
113,217,143465,2,0,B|124:160|100:100,1,120
101,101,143831,53,10
343,157,144074,22,0,B|367:121|411:101,1,90,12|0
397,217,144440,2,0,B|387:160|412:100,1,120,0|2
411,101,144806,53,8
184,68,145050,22,0,B|136:72|96:104,1,90,14|0
328,68,145416,2,0,B|396:76|440:124,1,120
256,32,145781,53,10
256,32,146025,69,4
152,92,146188,1,0
48,152,146351,1,0
152,212,146513,1,14
256,272,146675,1,0
256,152,146838,1,0
360,92,147001,1,14
464,152,147164,1,0
360,212,147326,1,0
360,212,147489,69,0
360,212,147611,1,0
360,212,147733,2,0,B|360:276,1,60,10|0
256,152,147977,69,0
256,152,148099,1,0
256,152,148220,1,0
256,152,148342,1,0
256,152,148464,6,0,B|256:216,1,60,10|0
256,212,148708,6,0,B|256:272,1,60,0|0
256,272,148952,6,0,B|256:344,1,60,10|0
108,304,149277,53,4
404,304,149521,1,0
108,304,149765,1,0
60,192,149928,2,0,B|80:132|44:68,1,120,2|0
48,76,150294,1,0
132,44,150416,5,10
220,64,150538,1,0
292,116,150659,1,0
380,136,150781,1,0
468,112,150903,70,0,B|448:172|484:236,1,120,14|0
444,312,151269,1,0
283,184,151513,2,0,B|308:248|372:256,1,120,2|0
444,312,151879,2,0,B|392:340|324:336,1,120,0|0
256,280,152245,1,0
256,280,152367,6,0,B|196:316,1,60,14|0
256,104,152611,2,0,B|316:68,1,60,0|0
384,124,152855,53,6
464,168,152977,1,0
384,212,153099,1,0
352,296,153220,5,0
352,296,153464,1,8
160,296,153708,69,0
160,296,153952,1,8
256,128,154196,5,6
256,128,154440,1,8
256,128,154684,1,8
256,36,154806,5,14
172,72,154928,1,0
104,132,155050,1,0
68,216,155172,2,0,B|48:276|64:336,1,120,0|0
384,272,155538,2,0,B|399:213|379:153,1,120,10|0
196,100,155903,2,0,B|176:159|191:218,1,120,0|0
326,158,156269,2,0,B|332:136|316:100,1,60,14|0
256,24,156513,2,0,B|224:40|204:80,1,60,0|0
172,148,156757,53,14
124,224,156879,1,0
48,272,157001,1,0
128,312,157123,6,0,B|160:312|192:360|244:360,1,120,8|0
308,304,157489,6,0,B|284:304|248:288,1,60,10|0
36,156,157733,53,0
120,192,157855,1,0
208,168,157977,1,0
288,124,158099,6,0,B|332:116|332:44|376:36,1,120,8|2
456,40,158464,6,0,B|452:80|424:104,1,60,8|0
308,304,158708,53,6
284,216,158830,1,0
208,168,158952,1,0
124,136,159074,6,0,B|64:116|44:36,1,120,8|0
136,36,159440,6,0,B|200:40,1,60,10|0
388,52,159684,53,0
328,120,159806,1,0
240,140,159928,1,0
152,160,160050,6,0,B|84:180|64:244,1,120,10|0
148,280,160416,6,0,B|212:288,1,60,8|0
448,312,160659,53,6
360,288,160781,1,0
300,220,160903,1,0
280,132,161025,6,0,B|268:72|200:44,1,120,8|0
112,36,161391,6,0,B|96:100,1,60,8|0
64,312,161635,53,0
152,288,161757,1,0
212,220,161879,1,0
232,132,162001,6,0,B|244:72|312:44,1,120,8|2
400,36,162367,6,0,B|416:100,1,60,8|0
472,344,162611,53,6
380,344,162733,1,0
288,344,162855,1,0
196,344,162977,6,0,B|76:344,1,120,8|0
44,260,163342,6,0,B|116:260,1,60,10|0
468,260,163586,54,0,B|408:260|408:260|352:228,1,120,8|0
176,260,163952,2,0,B|236:260|236:260|292:228,1,120,10|8
356,168,164318,2,0,B|312:120,1,60,8|0
256,56,164562,21,6
136,44,164725,1,0
56,132,164887,1,0
56,252,165050,1,0
136,340,165233,1,0
256,328,165375,1,0
376,340,165538,1,8
456,252,165700,1,0
456,132,165863,1,0
376,44,166025,1,14
376,44,166147,69,0
376,44,166269,1,0
376,44,166391,1,0
376,44,166513,2,0,B|256:64,1,120,14|0
164,44,166879,69,0
164,44,167123,1,0
124,124,167245,1,0
84,204,167367,1,0
44,284,167489,6,0,B|92:324|160:324,1,120
32,312,167855,2,0,B|80:352|148:352,2,120,8|0|8
40,192,168464,21,14
40,192,168586,2,0,B|48:144|108:132|140:180,3,120,0|8|8|8
472,192,169440,21,6
472,192,169562,2,0,B|464:240|404:252|372:204,3,120,0|8|8|8
164,68,170416,53,14
164,68,170538,2,0,B|172:20|232:8|264:56,3,120,0|8|8|8
348,316,171391,21,14
348,316,171513,2,0,B|340:364|280:376|248:328,3,120,0|8|8|8
412,36,172367,53,14
412,36,172489,2,0,B|419:32|458:21|494:65|472:116,3,120,0|8|8|8
100,348,173342,21,14
100,348,173464,2,0,B|92:351|53:362|17:318|39:267,3,120,0|8|8|8
72,192,174318,53,14
72,192,174440,1,8
164,36,174684,69,8
344,36,174928,69,8
436,192,175172,69,8
344,348,175416,69,8
164,348,175659,69,8
152,348,175720,5,0
152,336,175781,1,0
140,336,175842,1,0
140,324,175903,1,8
128,324,175964,1,0
128,312,176025,1,0
116,312,176086,1,0
116,300,176147,1,8
104,300,176208,1,0
104,288,176269,5,0
92,288,176330,1,0
92,276,176391,1,8
80,276,176452,1,0
80,264,176513,1,0
68,264,176574,1,0
68,252,176635,1,8
56,252,176696,1,0
56,240,176757,1,0
48,232,176818,5,0
48,220,176879,1,8
48,208,176940,1,0
48,196,177001,1,0
48,184,177062,1,0
48,172,177123,1,8
48,160,177184,1,0
48,148,177245,1,0
48,136,177306,5,0
48,124,177367,1,8
48,112,177428,1,0
48,100,177489,1,0
48,88,177550,1,0
48,76,177611,1,8
48,64,177672,1,0
48,52,177733,6,0,B|140:52,1,90,4|0
224,192,178220,37,4
224,192,178342,1,0
224,192,178464,1,0
224,192,178586,1,0
224,192,178708,1,0
224,192,178830,1,0
224,192,178952,1,0
224,192,179074,1,0
224,192,179196,1,2
224,192,179318,1,0
224,192,179440,1,0
224,192,179562,1,0
224,192,179684,22,0,B|404:192,1,180,8|0
476,140,180172,69,6
476,140,180294,1,0
476,140,180416,1,0
476,140,180538,1,0
476,140,180659,1,0
476,140,180781,1,0
476,140,180903,1,0
476,140,181025,1,0
476,140,181147,1,2
476,140,181269,1,0
476,140,181391,1,0
476,140,181513,1,0
476,140,181635,6,0,B|476:268,1,120,8|0
256,356,182123,53,6
256,356,182245,1,0
256,356,182367,1,0
256,356,182489,1,0
256,356,182611,1,0
256,356,182733,1,0
256,356,182855,1,0
256,356,182977,1,0
256,356,183099,1,2
256,356,183220,1,0
256,356,183342,37,0
256,356,183586,2,0,B|68:356,1,180,14|0
32,296,184074,53,6
32,260,184196,1,0
32,224,184318,1,0
32,188,184440,1,0
32,152,184562,1,0
32,116,184684,1,0
32,80,184806,1,0
32,44,184928,1,0
144,32,185050,69,4
144,68,185172,1,0
144,104,185294,1,0
144,140,185416,1,0
144,176,185538,1,2
144,212,185660,1,0
144,248,185782,1,0
144,284,185904,1,0
256,300,186025,5,6
256,300,186147,1,0
256,300,186269,1,0
256,300,186391,1,0
256,300,186513,1,0
256,300,186635,1,0
256,300,186757,1,0
256,300,186879,1,0
256,300,187001,6,0,B|256:84|256:84|256:64|284:28|340:28|368:64|368:80|368:80|368:140,1,420,8|0
368,252,187977,69,6
368,252,188099,1,0
368,252,188220,1,0
368,252,188342,1,0
368,252,188464,1,0
368,252,188586,1,0
368,252,188708,1,0
368,252,188829,1,0
368,252,188952,6,0,B|368:307|368:307|368:323|396:359|452:359|480:323|480:303|480:303|480:87,1,420,8|0
380,40,189928,53,6
344,40,190050,1,0
308,40,190172,1,0
272,40,190294,1,2
236,40,190416,1,0
200,40,190538,1,0
164,40,190659,1,0
128,40,190781,1,0
88,132,190903,5,6
136,132,191025,1,0
184,132,191146,1,0
232,132,191268,1,2
280,132,191390,1,0
328,132,191512,1,0
376,132,191634,1,0
424,132,191756,1,0
468,252,191879,5,6
408,252,192001,1,0
348,252,192123,1,0
288,252,192245,1,2
228,252,192367,1,0
168,252,192489,1,0
108,252,192610,1,0
48,252,192732,1,0
44,356,192855,6,0,B|468:356,1,420,6|0
472,192,193830,37,6
472,192,193952,1,0
472,192,194074,1,0
472,192,194196,1,0
472,192,194318,1,0
472,192,194440,1,0
472,192,194562,1,0
472,192,194684,1,0
472,192,194806,1,0
472,192,194928,1,0
472,192,195050,1,2
472,192,195172,1,0
472,192,195294,21,4
400,148,195416,1,0
328,104,195538,1,0
256,60,195659,1,0
60,60,195781,69,6
60,60,195903,1,0
60,60,196025,1,0
60,60,196147,1,0
60,60,196269,1,0
60,60,196391,1,0
60,60,196513,1,0
60,60,196635,1,0
60,60,196757,1,0
60,60,196879,1,0
60,60,197001,1,2
60,60,197123,1,0
60,60,197245,5,4
60,144,197367,1,0
60,228,197489,1,0
60,312,197611,1,0
256,352,197733,53,6
256,352,197855,1,0
256,352,197977,1,0
256,352,198099,1,0
256,352,198220,1,0
256,352,198342,1,0
256,352,198464,1,0
256,352,198586,1,0
256,352,198708,1,0
256,352,198830,1,0
256,352,198952,21,2
256,184,199196,2,0,B|256:140|292:148|328:140|328:184|364:196|396:184|396:136,1,180,4|0
392,64,199684,53,6
352,40,199806,1,0
308,64,199928,1,0
268,40,200050,1,2
228,64,200172,1,0
188,40,200294,1,0
144,64,200416,1,0
104,40,200538,1,0
60,192,200659,5,6
100,168,200781,1,0
144,192,200903,1,0
184,168,201025,1,2
224,192,201147,1,0
264,168,201269,1,0
308,192,201391,2,0,B|368:192,1,60
468,344,201635,6,0,B|396:344,1,60,6|0
324,344,201879,1,0
324,344,202001,1,0
324,344,202123,1,0
324,344,202245,1,0
324,344,202367,1,0
324,344,202489,1,0
324,344,202611,38,0,B|96:344|96:344|88:340|88:340|96:328|96:328|80:316|80:316|92:304|92:304|76:292|76:292|88:280|88:280|72:272|72:272|76:256|76:256|64:192|64:192,1,420,0|0
40,52,203586,2,0,B|112:52,1,60,6|0
184,52,203830,53,0
184,52,203952,1,0
184,52,204074,1,0
184,52,204196,1,0
184,52,204318,1,0
184,52,204440,1,0
184,52,204562,22,0,B|196:44|196:44|204:60|204:60|212:44|212:44|220:60|220:60|228:44|228:44|236:60|236:60|244:44|244:44|252:60|252:60|260:44|260:44|268:60|268:60|276:44|276:44|284:52|284:52|320:52,1,240,0|0
404,52,205172,53,0
444,128,205294,1,0
484,204,205416,1,0
424,352,205538,6,0,B|360:344|328:264,1,120
340,220,205903,1,2
336,280,206025,1,0
292,320,206147,1,0
232,328,206269,1,0
176,304,206391,1,0
44,196,206513,6,0,B|116:196|140:256,1,120
68,264,206878,1,2
44,196,207000,1,0
72,132,207122,1,0
140,104,207244,1,0
212,116,207366,1,0
382,96,207489,6,0,B|352:152|280:144,1,120
228,80,207854,1,0
312,68,207976,1,0
280,144,208098,1,0
196,156,208220,1,0
120,120,208342,1,0
60,60,208464,6,0,B|40:60,15,15,0|0|0|0|0|0|0|0|0|0|0|0|0|0|0|0
92,96,209440,37,6
92,96,209562,1,0
92,96,209684,1,0
92,96,209806,1,0
92,96,209928,1,0
92,96,210050,1,0
92,96,210172,1,0
92,96,210294,1,2
92,96,210416,1,0
92,96,210538,1,0
92,96,210660,1,2
92,96,210781,1,0
92,96,210903,22,0,B|176:132|268:100,1,180,0|0
384,64,211391,53,6
384,64,211513,1,0
384,64,211635,1,0
384,64,211757,1,0
384,64,211879,1,0
384,64,212001,1,0
384,64,212123,1,0
384,64,212245,1,2
384,64,212367,1,0
384,64,212489,1,0
384,64,212611,1,2
384,64,212733,1,0
384,64,212855,22,0,B|336:148|380:236,1,180,0|0
424,348,213342,53,6
424,348,213464,1,0
424,348,213586,1,0
424,348,213708,1,0
424,348,213830,1,0
424,348,213952,1,0
424,348,214074,1,0
424,348,214196,1,2
424,348,214318,1,0
424,348,214440,1,0
336,268,214562,1,2
336,268,214806,22,0,B|292:220|220:220|176:268,1,180,4|0
60,232,215294,2,0,B|176:268|176:268|136:176|48:148|88:16|192:48|216:72,1,420,6|0
316,60,216269,2,0,B|320:48|424:16|464:148|376:176|336:268|336:268|396:248|452:232,1,420,6|0
256,80,217245,53,6
256,80,217367,1,0
256,80,217489,1,0
256,80,217611,1,2
256,80,217733,1,0
256,80,217855,1,0
256,80,217977,1,0
256,80,218099,1,0
256,80,218220,22,0,B|256:148|256:148|192:152|164:116|148:40|180:-16|260:-32|312:-8|332:28|332:80|332:88,1,420,0|0
332,196,219196,53,6
332,196,219318,1,0
332,196,219440,1,0
332,196,219562,1,2
332,196,219684,1,0
332,196,219806,1,0
332,196,219928,1,0
332,196,220050,1,0
332,196,220172,22,0,B|364:272|320:336|256:360|192:336|148:272|180:192,1,360,4|0
88,264,221147,38,0,B|136:164|172:152|204:164|252:172|272:80|236:12|168:12|124:56|124:96,1,360,2|0
375,64,222123,2,0,B|376:56|344:28|276:12|236:80|260:172|308:164|344:140|372:180|424:256|424:256|424:272,1,360,2|0
424,264,223099,2,0,B|352:256|352:256|392:312|316:360|256:384|196:360|120:312|160:256|160:256|84:264,1,480,2|2
28,196,224196,53,0
88,128,224318,1,0
168,84,224440,1,2
256,64,224562,1,0
344,84,224684,1,0
424,128,224806,1,2
484,196,224928,1,0
420,332,225050,5,6
420,332,225172,1,0
420,332,225294,1,0
420,332,225416,1,0
420,332,225538,1,0
420,332,225659,1,0
420,332,225781,1,0
420,332,225903,1,0
316,272,226025,21,0
316,272,226147,1,0
316,272,226269,1,2
316,272,226391,1,0
316,272,226513,1,0
316,272,226635,1,2
316,272,226757,1,0
316,272,226879,1,0
196,272,227001,5,0
196,272,227123,1,0
196,272,227245,1,0
196,272,227367,1,2
196,272,227489,1,0
196,272,227611,1,0
196,272,227733,1,0
196,272,227855,1,0
92,332,227977,5,0
92,332,228099,1,0
92,332,228221,1,2
92,332,228342,1,0
92,332,228464,1,0
92,332,228586,1,2
92,332,228708,1,0
92,332,228830,1,0
48,96,228952,21,4
48,96,229074,1,0
48,96,229196,1,0
48,96,229318,1,2
48,96,229440,1,0
48,96,229562,1,0
48,96,229684,1,0
48,96,229806,1,0
184,48,229928,21,0
184,48,230050,1,0
184,48,230172,1,2
184,48,230294,1,0
184,48,230416,1,0
184,48,230538,1,2
184,48,230659,1,0
184,48,230781,1,0
328,48,230903,5,0
328,48,231025,1,0
328,48,231146,1,0
328,48,231268,1,2
328,48,231390,1,0
328,48,231512,1,0
328,48,231634,1,0
328,48,231756,1,0
464,96,231878,5,0
464,96,232000,1,0
464,96,232122,1,2
464,96,232244,1,0
464,96,232366,1,0
464,96,232488,1,2
444,184,232610,1,0
420,272,232733,1,0
256,348,232855,21,4
256,348,232977,1,0
256,348,233099,1,0
256,348,233220,1,2
256,348,233342,1,0
256,348,233403,1,0
256,348,233464,1,0
256,348,233586,1,0
256,348,233708,1,0
208,272,233830,21,0
208,272,233952,1,0
208,272,234074,1,2
208,272,234195,1,0
208,272,234317,1,0
208,272,234439,1,2
208,272,234501,1,0
208,272,234561,1,0
208,272,234684,1,0
336,192,234806,5,0
336,192,234928,1,0
336,192,235050,1,0
336,192,235171,1,2
336,192,235293,1,0
336,192,235354,1,0
336,192,235415,1,0
336,192,235537,1,0
336,192,235659,1,0
256,152,235781,5,0
256,152,235903,1,0
256,152,236025,1,2
256,152,236146,1,0
256,152,236268,1,0
256,152,236390,1,2
256,152,236452,1,0
256,152,236513,1,0
256,152,236634,1,0
196,48,236757,37,4
196,48,236879,1,0
196,48,237001,1,0
196,48,237123,1,2
196,48,237245,1,0
196,48,237367,1,0
196,48,237489,1,0
196,48,237611,1,0
316,48,237733,53,0
316,48,237855,1,0
316,48,237977,1,2
316,48,238099,1,0
388,100,238220,1,0
408,116,238281,1,2
428,132,238342,1,0
360,192,238464,1,0
428,252,238586,1,0
392,336,238708,38,0,B|332:336,1,60,4|0
256,288,238952,1,0
256,288,239074,1,0
256,288,239196,1,2
256,288,239318,1,0
124,232,239440,6,0,B|184:232,1,60,4|0
256,176,239684,1,0
256,176,239806,1,2
256,176,239928,1,0
256,176,240050,1,0
328,120,240172,6,0,B|408:120,1,60,4|2
456,60,240416,1,0
456,60,240538,1,0
456,60,240659,2,0,B|468:124,1,60,6|0
412,192,240903,53,0
412,192,241025,1,0
412,192,241147,1,0
412,192,241269,1,0
412,192,241391,1,2
412,192,241513,1,0
480,252,241635,54,0,B|444:304,1,60,8|0
360,272,241879,5,0
360,272,242001,2,0,B|324:324,1,60,8|2
240,288,242245,22,0,B|204:340,1,60,8|0
120,304,242489,21,0
36,264,242611,6,0,B|12:200|12:148|36:88,1,180,6|0
36,88,243586,1,8
320,32,244562,22,0,B|343:91|343:143|319:207,1,180,0|0
252,232,245538,1,6
148,264,245903,1,0
44,296,246269,1,4
44,296,246513,54,0,B|44:236|84:216|120:200|120:132,1,180,4|0
120,68,247489,1,12
400,132,248464,22,0,B|400:40,2,90
436,196,249440,1,6
452,228,249562,1,0
384,256,249806,1,0
376,292,249928,1,4
304,284,250172,1,4
232,268,250416,54,0,B|208:244|172:252,1,60,4|0
144,260,250781,2,0,B|92:256|80:196,1,90
52,140,251391,1,8
332,80,252367,22,0,B|408:192|332:304,1,240,0|6
240,248,253708,1,4
148,304,254074,1,0
124,276,254196,1,0
100,248,254318,54,0,B|120:212|120:172|96:128,1,120,4|0
140,72,255050,1,0
204,36,255294,1,12
388,124,256269,22,0,B|336:164,1,60,4|0
320,192,256635,2,0,B|320:260,1,60,4|0
292,276,257001,1,0
220,276,257245,1,0
192,252,257368,2,0,B|192:192,1,60
171,160,257734,2,0,B|123:123,1,60,4|0
108,52,258220,53,4
212,80,258586,2,0,B|300:80,1,90
376,80,259196,1,2
108,52,260172,21,0
376,80,261147,1,4
380,296,261879,53,4
324,252,262123,2,0,B|264:252,1,60,8|0
240,224,262489,2,0,B|240:160,1,60
212,140,262855,1,0
156,96,263099,1,2
444,96,264074,22,0,B|356:124|264:96,1,180,0|0
196,80,265050,2,0,B|196:32,1,30,8|0
196,160,265538,1,4
196,304,266025,53,4
316,304,267001,2,0,B|316:148|456:148,1,240,0|2
256,32,268952,1,4
172,108,269440,1,0
172,132,269562,1,0
156,152,269684,1,0
132,160,269806,1,0
108,160,269928,21,4
108,204,270050,1,0
132,240,270172,1,0
168,264,270294,1,0
212,276,270416,1,0
256,280,270538,1,0
300,276,270659,1,0
344,264,270781,1,0
380,240,270903,54,0,B|380:176,1,60,8|0
340,160,271269,2,0,B|340:92,1,60
380,76,271635,1,0
428,152,271879,22,0,B|428:228|428:228|420:280|356:300,1,180,2|0
288,240,272855,2,0,B|288:216,15,15
288,284,273830,53,4
256,320,273952,1,0
212,340,274074,1,0
164,340,274196,2,0,B|96:340,1,60
72,304,274562,1,4
72,208,274806,1,2
440,116,275781,21,0
72,24,276757,1,0
212,56,277123,1,0
352,88,277489,1,4
352,88,277733,54,0,B|416:112|416:200|352:227,1,180,4|0
256,228,278708,1,2
44,192,279684,21,8
160,52,280416,1,0
256,36,280659,2,0,B|296:36,1,30,4|0
420,96,281147,1,0
420,288,281635,53,4
288,268,282001,21,0
156,248,282367,5,8
68,232,282611,37,0
200,212,282977,21,8
332,192,283220,5,0
332,192,283342,1,12
420,176,283586,37,4
288,156,283830,21,0
288,156,283952,1,8
156,136,284196,5,0
156,136,284318,1,4
68,120,284562,37,8
200,100,284806,21,4
200,100,284928,1,8
332,80,285172,5,8
332,80,285294,1,4
332,80,285416,1,0
424,64,285538,5,6
256,192,285659,12,0,287245
400,192,287489,22,0,B|280:192|256:68,1,210,0|0
256,68,288464,21,4
216,136,288627,1,4
176,204,288789,5,4
256,188,288952,1,4
336,180,289114,5,4
296,248,289277,1,4
256,316,289440,5,6
