osu file format v5

[General]
AudioFilename: EarthBound Team - Pokey Means Business!.mp3
AudioLeadIn: 3000
PreviewTime: -1
Countdown: 0
SampleSet: Soft
EditorBookmarks: -16,52483,81168,109374

[Metadata]
Title:Pokey Means Business!
Artist:Keiichi Suzuki, Hirokazu Tanaka
Creator:WaddleD
Version:Normal

[Difficulty]
HPDrainRate:4
CircleSize:6
OverallDifficulty:6
SliderMultiplier:1.4
SliderTickRate:1

[Events]
//Background and Video events
0,0,"BossGiygas.jpg"
//Break Periods
2,67398,86123
//Storyboard Layer 0 (Background)
//Storyboard Layer 1 (Failing)
//Storyboard Layer 2 (Passing)
//Storyboard Layer 3 (Foreground)
//Storyboard Sound Samples
//Background Colour Transformations
3,100,163,162,255

[TimingPoints]
-1000,491.80359,4,2,0,100
53092,454.545454545455,4,2,0,100
87173,648.22787247027,4,2,0,100
107826,616.6277835,4,2,0,100

[Colours]
Combo1 : 128,64,64
Combo2 : 128,0,0
Combo3 : 255,0,0
Combo4 : 200,38,38

[HitObjects]
192,192,-16,2,0,B|288:192,1,70
320,192,721,2,0,B|320:32|320:32|192:32,1,280
128,32,1950,6,0,B|32:32,1,70
64,96,2688,2,0,B|64:192|64:192|64:384,1,280
128,384,3918,6,0,B|224:384,1,70
320,384,4655,2,0,B|320:224|320:224|192:224,1,280
160,224,5885,6,0,B|160:320,1,70
160,352,6622,2,0,B|2:354|2:354|0:224,1,280
96,192,7852,5,0
96,192,7975,1,0
160,192,8221,1,0
160,192,8344,1,0
224,192,8590,1,0
224,192,8713,1,0
288,192,8959,1,0
288,192,9081,1,0
352,192,9327,1,0
416,192,9573,1,0
416,256,9819,5,0
416,320,10065,1,0
352,320,10311,1,0
352,256,10557,1,0
352,192,10803,1,0
288,192,11049,1,0
288,128,11295,1,0
288,64,11540,1,0
224,64,11786,5,0
224,128,12032,1,0
224,192,12278,1,0
224,256,12524,1,0
160,256,12770,1,0
160,320,13016,1,0
224,320,13262,1,0
288,320,13508,1,0
352,320,13754,6,0,B|352:192,1,105
352,160,14245,2,0,B|224:160,1,105
192,192,14737,2,0,B|32:320|-32:128|-7:126|12:127|12:127,1,245
64,96,15721,6,0,B|192:96,1,105
224,96,16213,2,0,B|224:224,1,105
224,224,16704,2,0,B|311:286|437:262|416:160,1,245
416,96,17688,6,0,B|288:96,1,105
256,96,18180,2,0,B|256:224,1,105
256,224,18672,2,0,B|200:307|54:287|32:160,1,280
96,192,19901,1,0
160,224,20147,1,0
224,256,20393,1,0
288,288,20639,1,0
352,256,20885,1,0
416,288,21131,1,0
480,320,21377,1,0
416,352,21622,6,0,B|416:224,1,105
416,192,22114,2,0,B|288:192,1,105
256,192,22606,2,0,B|182:307|60:234|27:200|31:169|28:171|28:171,1,245
32,128,23590,6,0,B|160:128,1,105
192,128,24081,2,0,B|192:288|192:256,1,105
192,288,24573,2,0,B|384:288|384:160,1,245
384,96,25557,6,0,B|256:96,1,105
224,96,26049,2,0,B|224:224,1,105
224,224,26541,2,0,B|96:224|0:128|32:32,1,280
96,32,27770,1,0
160,64,28016,1,0
96,96,28262,1,0
32,128,28508,1,0
96,160,28754,1,0
160,128,29000,1,0
224,160,29245,1,0
288,192,29491,5,0
352,224,29737,1,0
416,256,29983,1,0
352,288,30229,1,0
288,256,30475,1,0
224,288,30721,1,0
288,320,30967,1,0
352,352,31213,1,0
416,352,31459,5,0
416,288,31704,1,0
416,224,31950,1,0
352,224,32196,1,0
352,160,32442,1,0
288,160,32688,1,0
288,224,32934,1,0
288,288,33180,1,0
288,352,33426,5,0
224,352,33672,1,0
160,352,33918,1,0
96,352,34163,1,0
96,288,34409,1,0
96,224,34655,1,0
96,160,34901,1,0
160,160,35147,1,0
224,160,35393,5,0
224,224,35639,1,0
288,224,35885,1,0
288,288,36131,1,0
352,288,36377,1,0
352,224,36622,1,0
352,160,36868,1,0
288,160,37114,1,0
288,96,37360,5,0
224,96,37606,1,0
224,160,37852,1,0
224,224,38098,1,0
224,288,38344,1,0
224,320,38467,1,0
224,352,38590,1,0
160,288,38836,1,0
160,320,38959,1,0
160,352,39081,1,0
96,352,39327,1,0
64,320,39573,1,0
64,256,39819,1,0
64,192,40065,1,0
64,128,40311,1,0
64,96,40434,1,0
64,64,40557,1,0
96,64,40680,1,0
128,64,40803,1,0
128,96,40926,1,0
128,128,41049,1,0
192,64,41295,6,0,B|480:64|480:64|480:320,1,525
448,352,43262,2,0,B|226:352|226:352|226:192|226:192|353:192|353:192|352:256,1,560
224,256,45967,6,0,B|191:153|191:153|160:256,1,210
128,288,46950,1,0
128,352,47196,1,0
224,352,47934,1,0
128,32,49163,5,0
224,32,49901,2,0,B|256:130|256:130|320:32,1,210
320,96,50885,1,0
320,160,51131,1,0
224,160,51868,1,0
32,160,53098,6,0,B|480:160,1,420
448,160,54910,6,0,B|0:160,1,420
64,288,56728,6,0,B|160:160|160:160|256:288|256:288|256:160,1,420
256,160,58546,6,0,B|256:32|256:32|448:288,1,420
416,192,60364,5,0
320,192,60819,1,0
224,192,61273,1,0
128,192,61728,1,0
128,96,62182,5,0
224,96,62637,1,0
320,96,63092,1,0
416,96,63546,1,0
416,192,64001,5,0
416,320,64455,1,0
256,320,64910,1,0
256,192,65364,1,0
256,192,65824,12,0,67198
192,192,87173,6,0,B|128:192,2,35
256,192,87821,5,0
320,192,88469,2,0,B|320:256,2,35
320,128,89117,1,0
320,64,89765,6,0,B|384:64,2,35
256,64,90414,1,0
192,64,91062,1,0
160,64,91224,1,0
128,64,91386,2,0,B|96:0|0:64|32:96,1,140
32,160,92358,5,0
64,160,92520,1,0
96,160,92682,1,0
96,224,93007,2,0,B|242:239,1,140
256,224,93817,5,0
256,192,93979,1,0
256,128,94303,2,0,B|96:128,1,140
96,128,95113,1,0
96,160,95275,1,0
96,224,95599,2,0,B|96:320,1,70
192,288,96248,1,0
224,288,96410,1,0
256,288,96572,2,0,B|416:288,1,140
448,256,97544,5,0
448,224,97706,1,0
448,192,97868,1,0
448,128,98192,1,0
448,32,98841,1,0
416,32,99003,1,0
384,32,99165,1,0
320,32,99489,1,0
224,32,100137,1,0
224,64,100299,1,0
224,96,100461,1,0
224,160,100785,1,0
320,160,101434,1,0
352,160,101596,1,0
384,160,101758,2,0,B|384:0,1,140
256,192,102730,12,0,107592
128,192,110138,5,0
224,192,110754,1,0
320,192,111371,1,0
384,192,111679,1,0
448,192,111988,1,0
448,256,112296,2,0,B|288:256,1,140
256,256,113221,1,0
192,256,113529,1,0
32,256,114146,1,0
32,192,114454,1,0
32,128,114763,1,0
32,32,115379,5,0
96,32,115688,1,0
224,32,116304,1,0
288,32,116612,1,0
352,32,116921,1,0
416,32,117229,2,0,B|288:288,1,280
128,288,119079,1,0
64,288,119387,2,0,B|64:128,1,140
192,64,120621,2,0,B|288:96,2,70
128,64,121545,2,0,B|95:137,1,70
96,192,122162,2,0,B|288:288,1,210
64,128,124012,1,0
64,192,124320,1,0
64,256,124629,1,0
369,206,125245,6,0,B|320:128,1,70
262,158,125862,1,0
192,96,126170,2,0,B|32:160|160:256,1,210
160,320,128328,2,0,B|224:192,1,140
288,128,129253,2,0,B|192:0,1,140
128,128,130487,5,0
224,64,131103,1,0
224,224,131720,1,0
