osu file format v5

[General]
AudioFilename: EarthBound Team - Pokey Means Business!.mp3
AudioLeadIn: 3000
PreviewTime: -1
Countdown: 0
SampleSet: Soft
EditorBookmarks: -16,52483,81168,109374

[Metadata]
Title:Pokey Means Business!
Artist:Keiichi Suzuki, Hirokazu Tanaka
Creator:WaddleD
Version:Insane

[Difficulty]
HPDrainRate:5
CircleSize:6
OverallDifficulty:7
SliderMultiplier:1.4
SliderTickRate:1

[Events]
//Background and Video events
0,0,"BossGiygas.jpg"
//Break Periods
2,67398,86123
//Storyboard Layer 0 (Background)
//Storyboard Layer 1 (Failing)
//Storyboard Layer 2 (Passing)
//Storyboard Layer 3 (Foreground)
//Storyboard Sound Samples
//Background Colour Transformations
3,100,163,162,255

[TimingPoints]
-1000,491.80359,4,2,0,100
53092,454.545454545455,4,2,0,100
87173,648.22787247027,4,2,0,100
107826,616.6277835,4,2,0,100

[Colours]
Combo1 : 128,64,64
Combo2 : 128,0,0
Combo3 : 255,0,0
Combo4 : 200,38,38

[HitObjects]
192,192,-16,2,0,B|288:192,1,70
320,192,721,2,0,B|320:32|320:32|192:32,1,280
160,96,1950,6,0,B|160:192,1,70
160,256,2688,2,0,B|290:256|290:256|192:128,1,280
192,64,3918,6,0,B|288:64,1,70
320,64,4655,2,0,B|320:224|320:224|192:224,1,280
288,160,5885,6,0,B|192:160,1,70
192,192,6622,2,0,B|192:320|192:320|32:320,1,280
96,192,7852,5,0
96,192,7975,1,0
160,192,8221,1,0
160,192,8344,1,0
224,192,8590,1,0
224,192,8713,1,0
288,192,8959,1,0
288,192,9081,1,0
352,192,9327,1,0
416,192,9573,1,0
416,256,9819,5,0
416,320,10065,1,0
352,320,10311,1,0
352,256,10557,1,0
352,192,10803,1,0
288,192,11049,1,0
288,128,11295,1,0
288,64,11540,1,0
224,64,11786,5,0
224,96,11909,1,0
224,128,12032,1,0
224,160,12155,1,0
224,192,12278,1,0
224,224,12401,1,0
192,224,12524,1,0
192,256,12647,1,0
192,288,12770,1,0
192,320,12893,1,0
192,352,13016,1,0
224,352,13139,1,0
256,352,13262,1,0
288,352,13385,1,0
320,352,13508,1,0
352,352,13631,1,0
384,352,13754,6,0,B|384:224,1,105
384,192,14245,2,0,B|256:192,1,105
256,192,14737,2,0,B|96:320|32:128|53:89|78:89|78:89,1,280
224,96,16213,2,0,B|224:224,1,105
224,224,16704,2,0,B|311:286|437:262|416:96,1,280
256,96,18180,2,0,B|256:224,1,105
256,224,18672,2,0,B|200:307|54:287|32:160,1,280
96,192,19901,1,0
160,224,20147,1,0
224,256,20393,1,0
288,288,20639,1,0
352,256,20885,1,0
416,288,21131,1,0
480,320,21377,1,0
416,352,21622,6,0,B|416:224,1,105
416,192,22114,2,0,B|288:192,1,105
288,192,22606,2,0,B|214:307|92:234|59:200|64:127|62:127|62:127,1,280
192,160,24081,2,0,B|192:320|192:288,1,105
192,288,24573,2,0,B|384:288|384:96,1,280
224,96,26049,2,0,B|224:224,1,105
224,224,26541,2,0,B|96:224|0:128|32:32,1,280
96,32,27770,1,0
160,64,28016,1,0
96,96,28262,1,0
32,128,28508,1,0
96,96,28754,1,0
160,128,29000,1,0
224,160,29245,1,0
256,192,29491,5,0
256,224,29614,1,0
224,224,29737,1,0
224,256,29860,1,0
256,256,29983,1,0
288,256,30106,1,0
288,288,30229,1,0
320,288,30352,1,0
352,288,30475,1,0
352,320,30598,1,0
384,320,30721,1,0
416,320,30844,1,0
416,352,30967,1,0
448,352,31090,1,0
480,352,31213,1,0
480,320,31336,1,0
448,320,31459,5,0
448,288,31581,1,0
416,288,31704,1,0
416,256,31827,1,0
384,256,31950,1,0
384,224,32073,1,0
352,224,32196,1,0
352,192,32319,1,0
320,192,32442,1,0
320,160,32565,1,0
288,160,32688,1,0
288,192,32811,1,0
288,224,32934,1,0
288,256,33057,1,0
288,288,33180,1,0
288,320,33303,1,0
256,320,33426,5,0
224,320,33549,1,0
192,320,33672,1,0
160,320,33795,1,0
128,320,33918,1,0
96,320,34041,1,0
64,320,34163,1,0
32,320,34286,1,0
32,288,34409,1,0
32,256,34532,1,0
32,224,34655,1,0
64,224,34778,1,0
96,224,34901,1,0
128,224,35024,1,0
160,224,35147,1,0
160,192,35270,1,0
192,192,35393,5,0
224,224,35516,1,0
256,256,35639,1,0
288,288,35762,1,0
320,320,35885,1,0
352,352,36008,1,0
384,320,36131,1,0
416,288,36254,1,0
448,256,36377,1,0
416,224,36500,1,0
384,192,36622,1,0
352,160,36745,1,0
320,128,36868,1,0
288,96,36991,1,0
256,64,37114,1,0
224,32,37237,1,0
224,64,37360,5,0
224,96,37483,1,0
224,128,37606,1,0
224,160,37729,1,0
224,192,37852,1,0
224,224,37975,1,0
224,256,38098,1,0
224,288,38221,1,0
192,288,38344,1,0
192,320,38467,1,0
192,352,38590,1,0
128,288,38836,1,0
128,320,38959,1,0
128,352,39081,1,0
96,352,39204,5,0
64,352,39327,1,0
32,352,39450,1,0
32,320,39573,1,0
32,288,39696,1,0
32,256,39819,1,0
32,224,39942,1,0
32,192,40065,1,0
32,160,40188,1,0
32,128,40311,1,0
32,96,40434,1,0
32,64,40557,1,0
64,96,40680,1,0
96,128,40803,1,0
96,96,40926,1,0
96,64,41049,1,0
128,64,41172,1,0
160,64,41295,6,0,B|448:64|448:64|448:320,1,525
448,352,43262,2,0,B|226:352|226:352|226:192|226:192|353:192|353:192|352:256,1,560
224,256,45967,2,0,B|203:155|203:155|160:288,1,210
128,320,46950,1,0
192,320,47196,1,0
320,320,47934,1,0
128,32,49163,5,0
224,32,49901,2,0,B|256:130|256:130|320:32,1,210
320,128,50885,1,0
320,192,51131,1,0
224,192,51868,1,0
32,160,53092,6,0,B|192:160,1,140
224,160,53773,2,0,B|448:160,1,210
448,160,54910,6,0,B|288:160,1,140
256,160,55592,2,0,B|32:160,1,210
64,288,56728,6,0,B|160:160|160:160|159:162|159:162|160:160,1,140
192,160,57410,2,0,B|160:256|256:288|256:128,1,210
160,96,58546,6,0,B|252:29|252:29|288:0,1,140
352,32,59228,2,0,B|352:256,1,210
416,192,60364,5,0
320,192,60819,1,0
224,192,61273,1,0
128,192,61728,1,0
128,96,62182,5,0
320,96,62637,1,0
416,256,63092,1,0
224,256,63546,1,0
64,96,64001,5,0
224,256,64455,1,0
352,96,64910,1,0
480,256,65364,1,0
256,192,65819,12,0,67193
128,192,87173,5,0
160,192,87335,1,0
192,192,87497,1,0
256,192,87821,1,0
320,256,88469,1,0
320,224,88631,1,0
320,192,88793,1,0
320,128,89117,1,0
96,64,89765,5,0
128,64,89927,1,0
160,64,90090,1,0
224,64,90414,1,0
320,160,91062,1,0
320,128,91224,1,0
320,96,91386,2,0,B|288:32|192:96|224:128,1,140
224,224,92358,5,0
192,224,92520,1,0
160,224,92682,2,0,B|96:288,1,70
249,287,93655,1,0
288,288,93817,1,0
320,288,93979,2,0,B|384:224,1,70
235,195,94951,1,0
192,192,95113,1,0
160,192,95275,1,0
160,256,95599,2,0,B|160:352,1,70
224,352,96248,1,0
256,352,96410,1,0
288,352,96572,2,0,B|448:352,1,140
416,288,97544,5,0
416,256,97706,1,0
416,224,97868,1,0
416,160,98192,1,0
32,160,98841,1,0
32,192,99003,1,0
32,224,99165,1,0
96,224,99489,1,0
224,32,100137,1,0
192,32,100299,1,0
192,64,100461,1,0
256,64,100785,1,0
96,192,101434,1,0
128,192,101596,1,0
160,192,101758,2,0,B|0:192,1,140
256,192,102730,12,0,104188
192,288,104675,6,0,B|224:256,1,35
256,192,105161,12,0,107592
128,192,110138,5,0
224,192,110754,1,0
320,192,111371,1,0
384,192,111679,1,0
448,192,111988,1,0
448,256,112296,2,0,B|288:256,1,140
256,256,113221,1,0
192,256,113529,1,0
32,64,114146,1,0
32,192,114454,1,0
32,320,114763,1,0
224,320,115379,5,0
224,256,115688,1,0
224,96,116304,1,0
288,96,116612,1,0
352,96,116921,1,0
416,96,117229,2,0,B|288:352,1,280
150,351,119079,1,0
128,288,119387,2,0,B|128:128,1,140
245,71,120621,2,0,B|384:160,1,140
353,215,121545,2,0,B|320:288,1,70
264,314,122162,2,0,B|64:192,1,210
64,128,124012,5,0
64,256,124320,1,0
192,256,124629,1,0
369,206,125245,2,0,B|320:128,1,70
192,96,126170,2,0,B|32:160|160:256,1,210
160,320,128328,2,0,B|256:192,1,140
288,128,129253,2,0,B|192:0,1,140
32,192,130487,1,0
448,64,131103,1,0
224,320,131720,1,0
