osu file format v5

[General]
AudioFilename: 07_-_snow_man.mp3
AudioLeadIn: 3000
PreviewTime: 450
Countdown: 1
SampleSet: Soft
StackLeniency: 0.7
Mode: 0
LetterboxInBreaks: 1

[Metadata]
Title:Snow Man
Artist:Keiichi Suzuki & Hirokazu Tanaka
Creator:K-S-O
Version:Podunk
Source:
Tags:

[Difficulty]
HPDrainRate:2
CircleSize:2
OverallDifficulty:1
SliderMultiplier:1.4
SliderTickRate:4

[Events]
//Background and Video events
0,0,"motherwp.jpg"
//Break Periods
2,51333,63130
2,102822,114618
2,154310,169325
//Storyboard Layer 0 (Background)
//Storyboard Layer 1 (Failing)
//Storyboard Layer 2 (Passing)
//Storyboard Layer 3 (Foreground)
//Storyboard Sound Samples
//Background Colour Transformations
3,100,163,162,255

[TimingPoints]
456,536.384766672626,4,2,0,50,1

[Colours]
Combo1 : 0,255,128
Combo2 : 0,128,255

[HitObjects]
128,80,450,1,0
240,80,1260,1,0
352,80,2065,1,0
464,80,2869,1,2
480,192,3674,5,0
368,192,4478,1,0
256,192,5283,1,2
144,192,6088,1,2
32,192,6892,1,2
48,144,8769,6,0,B|99:331|240:376|374:310|432:128,2,560,4|2|4
128,96,13329,5,0
224,32,14133,1,0
320,96,14938,1,0
432,96,15742,1,2
496,192,16547,5,0
384,224,17352,1,0
272,192,18156,1,2
144,176,18961,1,2
32,176,19765,2,2,B|23:260|0:288|32:304|80:320|128:317|144:304,1,210
448,256,22984,6,0,B|457:8|200:14|91:42|80:272,1,630,0|4
192,320,26202,5,0
192,208,27007,1,0
96,160,27811,1,2
192,96,28616,1,2
288,160,29420,1,4
288,272,30225,1,4
400,288,31029,6,4,B|492:190|400:80,2,210
288,272,33443,1,4
288,160,34248,1,4
208,80,35052,1,4
128,160,35857,1,4
128,272,36661,1,4
217,349,37466,1,4
304,272,39075,6,2,B|400:160|288:64,3,210
208,80,42294,2,2,B|112:192|224:288,3,210
304,304,45512,2,2,B|432:288|464:208|464:176,3,210
352,176,48730,2,2,B|214:192|192:320,3,210
80,160,64822,5,0
176,112,65626,1,0
288,96,66431,2,2,B|400:144|432:256,1,210
352,320,68040,5,0
240,304,68845,1,0
144,256,69649,2,2,B|96:176|112:112|208:64,1,210
288,64,71258,2,2,B|368:112|400:176|416:256,1,210
64,96,74477,6,2,B|59:270|134:332|300:347|402:285|444:180|432:64,1,630,2|6
320,64,77695,5,0
208,64,78499,1,0
128,128,79304,1,0
64,224,80109,1,2
144,304,80913,2,2,B|272:336|368:304,1,210
416,224,82522,2,2,B|288:240|224:224|176:208,1,210
272,128,84132,6,2,B|320:64|432:48|464:48,3,210
416,144,87350,2,2,B|352:208|288:224|224:224,3,210
128,272,90568,6,0,B|64:240|32:160|64:80,1,210
160,64,92177,2,0,B|224:32|320:32|368:64,1,210
336,160,93786,2,0,B|400:192|448:272|432:336,1,210
320,320,95396,2,2,B|240:288|208:224|256:144,1,210
160,96,97005,5,2
80,176,97809,1,2
128,272,98614,1,2
224,320,99418,1,2
320,288,100223,5,6
400,208,101028,1,6
368,96,101832,1,6
272,48,102637,1,6
112,192,116315,6,0,B|67:88|148:16|288:80,1,280
336,48,117924,1,2
400,128,118728,1,4
400,224,119533,6,0,B|256:288|168:288|144:192,1,280,0|0
48,208,121142,1,0
80,112,121947,1,4
160,176,122751,6,0,B|160:80|225:14|368:32,1,280
352,96,124360,1,2
416,176,125165,1,4
384,272,125970,5,4
320,288,126506,1,4
253,288,127042,1,4
189,272,127579,1,4
64,112,129188,5,0
208,112,130261,2,0,B|272:64|352:64,1,140
400,144,131602,1,2
352,240,132406,5,0
224,288,133479,2,0,B|128:256|112:192,1,140
64,112,134820,1,4
160,80,135624,5,0
304,80,136697,2,0,B|256:176|208:192,1,140
320,208,138038,1,2
272,304,138843,5,0
128,304,139916,2,0,B|144:208|64:176,1,140
96,80,141257,1,4
208,80,142061,5,0
272,112,142597,1,0
336,160,143134,2,0,B|304:240|224:256,1,140
128,288,144475,1,2
112,176,145279,5,0
144,112,145816,1,0
180,60,146352,2,0,B|276:92|340:140,1,140
432,96,147693,1,4
432,208,148498,5,0
384,256,149034,1,0
335,302,149570,2,0,B|239:286|207:222,1,140
96,208,150911,1,2
128,96,151716,5,0
192,64,152252,1,0
256,96,152789,1,4
320,128,153325,1,4
272,224,154130,1,6
112,224,171026,6,0,B|96:128|192:96|256:96|320:144,1,280
336,64,172635,2,0,B|432:80|480:160|480:256|448:288,1,280
384,272,174244,2,0,B|331:364|272:368|168:356|144:256,1,280
208,240,175853,2,0,B|208:160|144:96|48:96|0:160,1,280
64,208,177462,6,0,B|48:304|96:352|208:352|256:288,1,280
288,240,179072,2,0,B|368:192|384:96|304:64|224:64,1,280
208,128,180681,2,0,B|96:128|32:144|16:224|64:320,1,280
112,272,182290,1,0
176,304,182826,1,0
240,272,183363,1,0
304,240,183899,2,0,B|432:184|370:25|238:-4|112:80,2,420
256,192,187386,12,4,190336
