osu file format v5

[General]
AudioFilename: 07_-_snow_man.mp3
AudioLeadIn: 3000
PreviewTime: 450
Countdown: 1
SampleSet: Soft
StackLeniency: 0.7
Mode: 0
LetterboxInBreaks: 1

[Metadata]
Title:Snow Man
Artist:Keiichi Suzuki & Hirokazu Tanaka
Creator:K-S-O
Version:Magicant
Source:
Tags:

[Difficulty]
HPDrainRate:3
CircleSize:3
OverallDifficulty:3
SliderMultiplier:1.4
SliderTickRate:2

[Events]
//Background and Video events
0,0,"motherwp.jpg"
//Break Periods
2,51333,63130
2,102822,114618
2,154310,169325
//Storyboard Layer 0 (Background)
//Storyboard Layer 1 (Failing)
//Storyboard Layer 2 (Passing)
//Storyboard Layer 3 (Foreground)
//Storyboard Sound Samples
//Background Colour Transformations
3,100,163,162,255

[TimingPoints]
456,536.384766672626,4,2,0,50,1

[Colours]
Combo1 : 0,255,128
Combo2 : 0,128,255

[HitObjects]
112,144,450,1,0
208,80,992,1,0
256,64,1260,2,0,B|348:72|386:121|384:192,1,140
336,176,2065,2,0,B|368:256|464:240,1,140
480,288,2869,1,2
320,352,3674,5,0
368,256,4210,1,0
304,256,4478,2,0,B|240:176|176:176,1,140
192,240,5283,2,0,B|112:272|96:352,1,140
48,304,6088,1,0
48,240,6356,1,2
80,192,6624,1,2
80,128,6892,1,4
496,208,8769,6,2,B|490:350|443:415|370:368|368:208,1,350
368,160,10379,2,2,B|366:8|315:-47|240:16|240:160,1,350
240,208,11988,2,2,B|240:287|187:415|114:287|112:208,1,280
96,160,13329,5,0
96,48,13865,1,0
144,80,14133,2,0,B|224:144|288:64,1,140
288,32,14938,2,0,B|384:64|400:144,1,140
448,96,15742,1,4
336,224,16547,5,0
448,208,17083,1,0
480,256,17352,2,0,B|416:336|352:336,1,140
336,288,18156,2,0,B|256:336|192:288,1,140
144,288,18961,1,0
80,288,19229,1,0
32,240,19497,1,2
64,192,19765,1,2
224,192,20570,1,6
416,208,22984,6,2,B|414:372|363:415|288:340|288:208,1,350
240,208,24593,2,2,B|237:42|167:1|115:80|112:208,1,350
48,208,26202,6,0,B|80:320|160:336,1,140
176,288,27007,2,0,B|272:336|336:272,1,140
352,320,27811,2,0,B|448:288|464:224,1,140
416,192,28616,2,0,B|448:112|400:48,1,140
352,80,29420,2,0,B|275:32|208:96,1,140
240,144,30225,1,2
64,144,31029,6,2,B|112:48|240:48,2,210
16,240,33175,1,2
64,240,33443,2,2,B|99:306|224:320,1,140
208,272,34248,2,2,B|304:304|368:256,1,140
352,224,35052,2,2,B|400:112|336:80,1,140
304,80,35857,5,0
256,80,36125,1,0
208,80,36393,1,0
160,96,36661,1,2
112,112,36930,1,2
80,144,37198,1,2
48,176,37466,2,4,B|48:288|128:336,1,140
144,304,38271,1,6
272,240,39075,5,0
304,288,39343,1,0
352,304,39612,1,0
400,288,39880,2,2,B|464:224|448:160,1,140
400,128,40684,1,0
432,80,40953,1,0
400,32,41221,1,0
352,64,41489,2,2,B|256:112|208:64,1,140
160,48,42294,1,0
128,96,42562,1,0
80,80,42830,1,0
64,128,43098,2,2,B|16:240|80:304,1,140
96,288,43903,5,0
144,320,44171,1,0
192,288,44439,1,0
240,320,44707,1,2
288,288,44975,1,2
336,320,45244,1,2
384,288,45512,6,2,B|464:208|432:144,1,140
400,144,46316,1,0
400,96,46585,1,0
368,48,46853,1,0
320,64,47121,2,2,B|192:48|208:144,1,140
256,144,47926,1,0
288,176,48194,1,0
272,224,48462,1,0
304,256,48730,2,2,B|240:352|176:320,1,140
144,304,49535,1,0
128,256,49803,1,0
112,208,50071,1,0
96,160,50339,2,2,B|160:80|256:80,1,140
256,64,51144,1,4
272,256,64822,6,0,B|176:320|128:256,1,140
144,208,65626,2,0,B|48:192|48:112,1,140
80,80,66431,1,0
128,112,66699,1,2
176,80,66967,1,2
224,48,67235,2,2,B|352:80|352:160,1,140
400,112,68040,6,0,B|464:208|416:240,1,140
368,224,68845,2,0,B|288:288|304:368,1,140
256,320,69649,2,0,B|176:288|160:208,1,140
112,240,70454,1,2
64,272,70722,1,2
32,224,70990,1,2
48,176,71258,2,2,B|112:64|160:64,1,140
176,112,72063,1,6
416,192,74477,6,2,B|414:356|363:399|288:324|288:192,1,350
240,192,76086,2,2,B|237:26|167:-15|115:64|112:192,1,350
64,224,77695,5,0
80,272,77963,1,0
128,304,78231,1,0
176,272,78499,2,2,B|128:176|128:112,1,140
128,80,79304,1,0
176,48,79572,1,0
208,96,79840,1,0
224,144,80109,2,2,B|272:256|352:304,1,140
320,304,80913,1,0
352,352,81181,1,0
400,336,81450,1,0
416,288,81718,2,2,B|416:160|336:128,1,140
416,112,82522,5,0
448,64,82791,1,0
416,16,83059,1,0
352,16,83327,1,2
304,48,83595,1,2
304,96,83863,1,2
336,144,84132,6,2,B|320:272|240:288,1,140
320,304,84936,2,2,B|240:368|160:336,1,140
176,288,85741,2,2,B|96:304|32:224,1,140
80,192,86545,2,2,B|48:112|112:64,1,140
144,96,87350,2,2,B|224:144|224:208,1,140
272,176,88154,2,2,B|368:144|400:208,1,140
432,160,88959,1,4
112,64,90568,5,0
160,96,90836,1,0
192,144,91105,1,0
240,128,91373,2,2,B|336:64|400:160,1,140
352,176,92177,1,0
320,224,92445,1,0
352,272,92714,1,0
400,304,92982,2,2,B|320:384|240:352,1,140
240,320,93786,1,0
192,288,94055,1,0
160,240,94323,1,0
96,240,94591,2,2,B|0:176|16:112,1,140
48,96,95396,6,2,B|112:48|208:64|256:112,2,210
192,192,97809,1,0
336,112,98614,1,0
416,256,99418,1,0
272,336,100223,1,4
96,320,101028,1,4
240,240,101832,1,0
288,208,102100,1,0
336,176,102369,1,0
384,160,102637,1,4
336,240,116315,6,0,B|272:320|192:304|144:256|96:208,1,280
128,160,117656,1,0
176,128,117924,1,0
224,128,118192,1,2
272,96,118460,1,2
320,128,118728,1,6
464,224,119533,6,0,B|416:304|336:336|256:320|208:272,1,280
112,320,121142,1,0
64,224,121678,1,0
96,176,121947,1,4
128,64,122751,6,0,B|224:112|272:112|336:96|400:80,1,280
320,160,124360,1,0
432,192,124897,1,0
464,240,125165,1,2
416,272,125433,1,2
368,304,125701,1,2
304,320,125970,6,2,B|208:288|176:224,3,140
176,144,129188,6,0,B|240:64|320:80|368:128|416:176,1,280
384,224,130529,1,0
336,256,130797,1,0
288,256,131065,1,2
240,288,131333,1,2
192,256,131602,1,6
48,160,132406,6,0,B|96:80|176:48|256:64|304:112,1,280
400,64,134015,1,0
448,160,134552,1,0
416,192,134820,1,4
384,320,135624,6,0,B|288:272|240:272|176:288|112:304,1,280
192,224,137234,1,0
80,192,137770,1,0
48,144,138038,1,2
96,112,138306,1,2
144,80,138575,1,2
192,112,138843,6,0,B|352:80|416:240,1,280
352,240,140184,1,0
304,272,140452,1,0
192,272,140988,1,0
240,240,141257,1,4
304,112,142061,6,0,B|384:176|368:256|320:304|272:352,1,280
224,320,143402,1,0
192,272,143670,1,0
192,224,143938,1,2
160,176,144207,1,2
192,128,144475,1,2
336,32,145279,6,0,B|416:80|448:160|432:240|384:288,1,280
352,368,146889,1,0
240,352,147425,1,0
256,304,147693,1,4
128,320,148498,6,0,B|176:224|176:176|160:112|144:48,1,280
224,128,150107,1,0
256,16,150643,1,0
304,16,150911,1,2
304,64,151180,1,2
352,80,151448,1,2
384,128,151716,6,4,B|352:224|288:256,3,140
192,272,153862,1,0
144,288,154130,1,4
144,240,171026,6,0,B|96:176|144:96|224:64|304:112,1,280
400,80,172635,2,0,B|480:160|448:240|384:256|304:240,1,280
224,320,174244,1,0
160,320,174512,1,0
112,288,174781,1,0
80,240,175049,1,0
64,64,175853,6,0,B|112:176|176:192,3,140
336,64,178535,1,0
240,112,179072,2,0,B|293:248|480:240,1,280
368,304,180681,1,0
320,336,180949,1,0
272,320,181217,1,0
240,272,181485,1,0
80,320,182290,6,0,B|48:208|112:144,2,140
192,288,183899,6,0,B|303:339|418:325|470:277|463:156|432:96,1,420
256,192,186045,12,4,190336
