osu file format v5

[General]
AudioFilename: 08 pumpkin head man.mp3
AudioLeadIn: 0
PreviewTime: -1
Countdown: 1
SampleSet: Normal
StackLeniency: 0.7
Mode: 0
LetterboxInBreaks: 1

[Metadata]
Title:pumpkin head man
Artist:Keiichi Sugiyama
Creator:Azul
Version:Spooky
Source:
Tags:

[Difficulty]
HPDrainRate:3
CircleSize:4
OverallDifficulty:3
SliderMultiplier:2.2
SliderTickRate:2

[Events]
//Background and Video events
//Break Periods
2,21810,31378
2,64150,73513
2,117495,127097
//Storyboard Layer 0 (Background)
//Storyboard Layer 1 (Failing)
//Storyboard Layer 2 (Passing)
//Storyboard Layer 3 (Foreground)
//Storyboard Sound Samples
//Background Colour Transformations
3,100,255,255,255

[TimingPoints]
5607,666.797499999999,4,1,0,100,1

[Colours]
Combo1 : 128,0,255
Combo2 : 255,128,0
Combo3 : 0,255,0
Combo4 : 0,0,0

[HitObjects]
96,128,10941,1,0
256,128,11441,1,0
416,128,11941,1,0
160,256,12608,1,0
320,288,13275,1,0
352,320,13608,2,0,B|480:160|224:64|96:224,1,440
384,128,16275,5,0
256,128,16775,1,0
128,128,17275,1,0
32,192,17942,5,0
192,288,18609,1,0
256,320,18942,2,0,B|352:224,3,110
352,160,20276,2,0,B|192:160,1,110
160,160,20943,2,0,B|256:288,1,110
256,192,21610,5,6
64,96,32278,5,0
160,96,32778,1,0
256,128,33279,1,0
288,160,33612,1,0
416,160,34112,1,0
416,160,34946,5,0
416,256,35446,1,0
320,256,35947,1,0
288,256,36280,1,0
160,256,36780,1,0
64,192,37613,5,0
160,192,38113,1,0
256,192,38614,1,0
288,192,38947,1,0
416,192,39447,1,0
256,64,40280,5,0
96,192,40780,1,0
224,320,41281,1,0
256,320,41614,1,0
384,192,42114,1,0
64,192,42947,5,0
160,192,43447,1,0
256,192,43948,1,0
288,192,44281,1,0
416,192,44781,1,0
256,320,45614,5,0
128,192,46114,1,0
224,64,46615,1,0
256,64,46948,1,0
384,192,47448,1,0
384,288,48282,5,0
256,288,48782,1,0
256,192,49283,1,0
256,160,49616,1,0
256,32,50116,1,0
96,96,50949,5,0
160,192,51449,1,0
192,288,51950,1,0
224,288,52283,1,0
320,288,52783,1,0
319,140,53616,6,0,L|432:140|351:12,1,220
173,138,54950,2,0,L|60:138|141:10,1,220
44,195,56283,2,0,L|86:309|139:226|187:313|311:312|371:224|451:310|501:181,1,770
193,140,58950,6,0,L|80:140|161:12,1,220
339,138,60284,2,0,L|452:138|371:10,1,220
477,196,61617,2,0,L|435:310|382:227|334:314|206:313|140:229|70:311|20:182,1,770
96,128,74953,5,0
256,128,75454,1,0
416,128,75954,1,0
256,256,76620,1,0
160,256,77287,1,0
160,192,77621,1,0
128,224,80288,5,0
224,192,80788,1,0
352,224,81288,1,0
352,128,81955,1,0
256,128,82622,1,0
128,96,82955,1,0
256,224,85289,1,0
32,224,85622,6,0,B|21:156|81:72|180:32|288:96,1,330,0|0
256,32,86956,2,0,B|324:21|408:81|448:180|384:288,1,330
480,192,88289,2,0,B|491:260|431:344|332:384|224:320,1,330
64,256,89623,2,0,B|53:188|113:104|212:64|320:128,1,330
192,256,90957,6,0,B|320:256,1,110
384,224,91623,2,0,B|384:96,1,110
288,96,92290,2,0,B|160:96,1,110
160,192,92957,2,0,B|32:192,1,110
192,192,93624,2,0,B|320:192,3,110
256,192,94957,12,0,96291
96,320,96624,1,0
192,224,97291,1,0
288,320,97958,1,0
384,224,98625,1,0
480,320,99292,1,0
480,128,99958,1,0
288,128,100625,1,0
192,224,101292,1,0
288,224,101625,5,0
384,128,102292,1,0
192,128,102959,1,0
96,224,103626,1,0
288,224,104293,1,0
288,32,104959,1,0
96,32,105626,1,0
96,224,106293,1,0
0,320,106960,5,0
192,320,107627,1,0
192,128,108293,1,0
288,32,108960,1,0
384,32,109294,1,0
384,128,109627,5,0
288,224,110294,1,0
480,224,110961,1,0
480,32,111627,1,0
384,32,111961,1,0
288,32,112294,5,0
192,128,112961,1,0
96,32,113628,1,0
96,128,113961,1,0
96,224,114294,1,0
192,224,114628,1,0
192,320,114961,5,0
288,320,115295,1,0
288,224,115628,1,0
384,224,115961,1,0
384,320,116295,1,0
480,224,116628,1,0
416,128,116962,1,0
256,128,117295,1,0
96,128,128297,5,0
256,128,128797,1,0
416,128,129297,1,0
160,256,129964,1,0
320,288,130631,1,0
352,320,130964,2,0,B|480:160|224:64|96:224,1,440
416,288,133632,5,0
256,288,134132,1,0
96,288,134632,1,0
384,160,135299,1,0
128,96,135966,1,0
32,96,136299,2,0,B|208:40|372:232|288:352,1,440
96,128,138966,5,0
256,128,139466,1,0
416,128,139966,1,0
160,256,140633,1,0
320,288,141300,1,0
352,320,141633,2,0,B|480:160|224:64|96:224,1,440
256,192,146968,12,0,149635
