osu file format v5

[General]
AudioFilename: 08 pumpkin head man.mp3
AudioLeadIn: 0
PreviewTime: -1
Countdown: 1
SampleSet: Normal
StackLeniency: 0.7
Mode: 0
LetterboxInBreaks: 1

[Metadata]
Title:pumpkin head man
Artist:Keiichi Sugiyama
Creator:Azul
Version:Scary
Source:
Tags:

[Difficulty]
HPDrainRate:5
CircleSize:5
OverallDifficulty:5
SliderMultiplier:2.2
SliderTickRate:1

[Events]
//Background and Video events
//Break Periods
2,21810,31378
2,117495,127097
//Storyboard Layer 0 (Background)
//Storyboard Layer 1 (Failing)
//Storyboard Layer 2 (Passing)
//Storyboard Layer 3 (Foreground)
//Storyboard Sound Samples
//Background Colour Transformations
3,100,128,128,128

[TimingPoints]
5607,666.797499999999,4,1,0,100,1

[Colours]
Combo1 : 128,0,255
Combo2 : 255,128,0
Combo3 : 0,255,0
Combo4 : 0,0,0

[HitObjects]
96,96,5607,1,0
224,96,6107,1,0
352,96,6607,1,0
352,160,6940,1,0
224,224,7440,1,0
256,320,7940,1,0
256,320,8107,1,0
256,320,8274,1,0
352,288,8774,1,0
320,192,9274,1,0
288,160,9607,1,0
192,128,10107,1,0
96,128,10607,1,0
128,192,10941,5,0
256,96,11441,1,0
320,256,11941,1,0
160,288,12608,1,0
256,224,12941,1,0
320,192,13275,1,0
384,192,13608,1,0
384,192,13775,1,0
192,192,14108,1,0
192,192,14608,1,0
160,224,15108,5,0
384,192,16275,5,0
256,96,16775,1,0
192,256,17275,1,0
352,288,17942,1,0
256,224,18275,1,0
192,192,18609,1,0
128,192,18942,1,0
128,192,19109,1,0
320,192,19442,1,0
320,192,19942,1,0
256,192,21610,5,6
96,160,32278,5,0
160,192,32778,1,0
192,192,33279,1,0
256,192,33612,1,0
288,160,34112,1,0
288,160,34612,1,0
320,128,34946,1,0
224,128,35446,1,0
192,192,35946,1,0
128,192,36279,1,0
192,256,36779,1,0
224,224,37279,1,0
96,160,37613,5,0
160,192,38113,1,0
192,192,38614,1,0
256,192,38947,1,0
288,160,39447,1,0
288,160,39947,1,0
320,128,40281,1,0
224,128,40781,1,0
192,192,41281,1,0
128,192,41614,1,0
192,256,42114,1,0
224,224,42614,1,0
96,160,42947,5,0
160,192,43447,1,0
192,192,43948,1,0
256,192,44281,1,0
288,160,44781,1,0
288,160,45281,1,0
320,128,45615,1,0
224,128,46115,1,0
192,192,46615,1,0
128,192,46948,1,0
192,256,47448,1,0
224,224,47948,1,0
96,160,48282,5,0
160,192,48782,1,0
192,192,49283,1,0
256,192,49616,1,0
288,160,50116,1,0
288,160,50616,1,0
320,128,50950,1,0
224,128,51450,1,0
192,192,51950,1,0
128,192,52283,1,0
192,256,52783,1,0
224,224,53283,1,0
192,128,53616,5,0
192,160,53949,1,0
192,160,54283,1,0
288,128,54950,5,0
288,128,55283,1,0
288,128,55616,1,0
160,192,56283,5,0
192,192,56617,1,0
192,224,56950,1,0
224,224,57283,1,0
224,192,57617,1,0
192,192,57950,1,0
192,160,58284,1,0
288,192,58950,5,0
288,192,59284,1,0
288,192,59617,1,0
96,224,60284,5,0
96,224,60617,1,0
96,224,60951,1,0
192,256,61617,5,0
224,256,61951,1,0
224,256,62284,1,0
256,256,62618,1,0
288,256,62951,1,0
288,256,63284,1,0
320,256,63618,1,0
320,160,64285,5,0
288,192,64618,1,0
192,192,64785,1,0
128,192,65118,1,0
128,224,65285,1,0
128,224,65452,1,0
96,224,65785,1,0
96,224,65952,1,0
160,192,66285,1,0
224,192,66618,1,0
256,224,66952,1,0
352,192,67452,5,0
352,256,67952,1,0
384,192,68285,1,0
384,160,68786,1,0
288,160,69286,1,0
288,160,69452,1,0
288,160,69619,1,0
160,160,70119,5,0
160,256,70619,1,0
192,256,70953,1,0
256,224,71453,1,0
384,224,71953,1,0
384,224,72120,1,0
384,224,72286,1,0
160,160,72786,5,0
160,256,73286,1,0
192,256,73620,1,0
256,224,74120,1,0
128,192,74953,5,0
256,96,75453,1,0
320,256,75953,1,0
160,288,76620,1,0
256,224,76953,1,0
320,192,77287,1,0
384,192,77620,1,0
384,192,77787,1,0
192,192,78120,1,0
192,192,78620,1,0
160,224,79120,5,0
384,192,80287,5,0
256,96,80787,1,0
192,256,81287,1,0
352,288,81954,1,0
256,224,82287,1,0
192,192,82621,1,0
128,192,82954,1,0
128,192,83121,1,0
320,192,83454,1,0
320,192,83954,1,0
256,192,85622,12,0,86622
96,192,86956,6,0,B|133:108|201:83|325:136|352:224,1,330
256,192,88289,12,0,89290
128,192,89623,6,0,B|224:128|298:299|107:292|448:128|448:128,1,330
256,192,90957,12,0,91290
192,256,91623,6,0,B|256:256,2,55
256,192,92290,12,0,92624
256,224,92957,6,0,B|352:224,2,55
192,224,93624,2,0,B|121:152|192:64,2,165
256,192,94957,12,0,96291
96,192,98958,6,0,B|224:224|288:192,1,165
192,160,99958,2,0,B|320:128,1,110
352,128,101625,2,0,B|288:288,1,165
192,160,102459,2,0,B|160:160|192:224,3,55
96,224,109627,6,0,B|160:160|224:192|224:224|256:192,1,165
160,256,110627,2,0,B|160:128,1,110
128,192,112294,2,0,B|192:128|320:192,1,165
96,224,114961,2,0,B|128:192|192:192|288:192,1,165
128,192,128297,5,0
256,96,128797,1,0
320,256,129297,1,0
160,288,129964,1,0
256,224,130297,1,0
320,192,130631,1,0
384,192,130964,1,0
384,192,131131,1,0
192,192,131464,1,0
192,192,131964,1,0
160,224,132464,5,0
384,192,133631,5,0
256,96,134131,1,0
192,256,134631,1,0
352,288,135298,1,0
256,224,135631,1,0
192,192,135965,1,0
128,192,136298,1,0
128,192,136465,1,0
320,192,136798,1,0
320,192,137298,1,0
128,192,138966,5,0
256,96,139466,1,0
320,256,139966,1,0
160,288,140633,1,0
256,224,140966,1,0
320,192,141300,1,0
384,192,141633,1,0
384,192,141800,1,0
192,192,142133,1,0
192,192,142633,1,0
160,224,143133,5,0
192,128,144300,5,0
192,128,144634,1,0
160,128,144800,1,0
160,128,145134,1,0
160,128,145301,1,0
160,128,145467,1,0
160,128,145801,1,0
160,128,145967,1,0
160,128,146301,1,0
160,128,146634,1,0
256,192,146968,12,4,149635
