osu file format v14

[General]
AudioFilename: audio.mp3
AudioLeadIn: 0
PreviewTime: 135745
Countdown: 0
SampleSet: Soft
StackLeniency: 0.5
Mode: 0
LetterboxInBreaks: 0
WidescreenStoryboard: 1

[Editor]
DistanceSpacing: 1.2
BeatDivisor: 1
GridSize: 4
TimelineZoom: 1

[Metadata]
Title:Vague Hope - Cold Rain
TitleUnicode:曖昧ナ希望/氷雨
Artist:Keigo Hoashi
ArtistUnicode:帆足圭吾
Creator:Aeril
Version:Normal
Source:NieR:Automata
Tags:monaca ニーア オートマタ platinumgames square enix nier automata
BeatmapID:1426294
BeatmapSetID:672727

[Difficulty]
HPDrainRate:4
CircleSize:3.5
OverallDifficulty:4
ApproachRate:5
SliderMultiplier:0.66
SliderTickRate:1

[Events]
//Background and Video events
0,0,"vague hope.jpg",0,0
//Break Periods
2,57348,61574
//Storyboard Layer 0 (Background)
//Storyboard Layer 1 (Fail)
//Storyboard Layer 2 (Pass)
//Storyboard Layer 3 (Foreground)
//Storyboard Sound Samples

[TimingPoints]
899,468.75,6,2,1,5,1,0
899,-100,4,2,1,5,0,0
3711,-100,6,2,1,15,0,0
6524,-100,6,2,1,25,0,0
9336,-100,6,2,1,35,0,0
12149,-100,6,2,1,40,0,0
55742,-100,6,2,1,30,0,0
62774,-100,6,2,1,55,0,0
90899,-100,6,2,1,45,0,0
113399,-100,6,2,1,40,0,0
156992,-100,6,2,1,30,0,0
158399,-100,6,2,1,40,0,0
164024,-100,6,2,1,55,0,0
203399,-100,6,2,1,45,0,0

[Colours]
Combo1 : 54,87,137
Combo2 : 192,192,192
Combo3 : 97,97,97
Combo4 : 173,199,226

[HitObjects]
365,318,899,6,0,P|414:324|455:297,2,99,0|0|2,0:0|0:0|0:0,0:0:0:0:
264,255,3008,1,0,0:0:0:0:
174,334,3711,2,0,P|173:273|59:277,1,198,0|2,0:0|0:0,0:0:0:0:
100,36,6524,6,0,L|113:129,1,66,2|0,0:0|0:0,0:0:0:0:
160,163,7461,2,0,P|203:164|233:148,1,66,0|2,0:0|0:0,0:0:0:0:
251,37,8633,1,0,0:0:0:0:
340,117,9336,2,0,P|341:56|455:60,1,198,0|10,0:0|0:0,0:0:0:0:
479,225,12149,6,0,L|362:232,1,99,2|0,0:0|0:0,0:0:0:0:
268,184,13555,2,0,P|220:197|195:246,1,99,2|0,0:0|0:0,0:0:0:0:
237,350,14961,2,0,L|159:357,2,66,2|0|0,0:0|0:0|0:0,0:0:0:0:
316,342,16367,1,2,0:0:0:0:
357,147,17774,6,0,P|365:102|343:48,1,99,2|0,0:0|0:0,0:0:0:0:
229,84,19180,2,0,P|178:85|127:48,1,99,2|0,0:0|0:0,0:0:0:0:
74,162,20586,2,0,P|33:143|2:147,2,66,2|0|0,0:0|0:0|0:0,0:0:0:0:
123,224,21992,2,0,P|82:243|51:239,2,66,2|0|0,0:0|0:0|0:0,0:0:0:0:
191,182,23399,6,0,L|177:295,1,99,2|0,0:0|0:0,0:0:0:0:
273,354,24805,2,0,L|285:254,1,99,2|0,0:0|0:0,0:0:0:0:
397,206,26211,2,0,P|447:214|476:244,2,66,0|0|0,0:0|0:0|0:0,0:0:0:0:
365,279,27617,1,2,0:0:0:0:
216,90,29024,6,0,L|205:11,2,66,2|0|0,0:0|0:0|0:0,0:0:0:0:
292,113,30430,2,0,P|335:100|396:117,1,99,2|0,0:0|0:0,0:0:0:0:
445,217,31836,2,0,P|402:230|357:220,2,66,2|0|2,0:0|0:0|0:0,0:0:0:0:
485,147,33242,1,0,0:0:0:0:
272,35,34649,6,0,L|171:41,1,99,2|2,0:0|0:0,0:0:0:0:
68,113,36055,2,0,P|53:162|64:199,2,66,2|0|0,0:0|0:0|0:0,0:0:0:0:
132,160,37461,6,0,P|178:146|243:206,1,132,0|2,0:0|0:0,0:0:0:0:
229,273,38867,1,10,0:0:0:0:
450,365,40274,6,0,L|343:355,1,99,2|0,0:0|0:0,0:0:0:0:
305,244,41680,2,0,P|300:205|327:150,1,99,2|0,0:0|0:0,0:0:0:0:
424,83,43086,2,0,P|471:86|509:71,2,66,2|0|0,0:0|0:0|0:0,0:0:0:0:
353,45,44492,1,10,0:0:0:0:
141,157,45899,6,0,P|131:103|153:56,1,99,2|0,0:0|0:0,0:0:0:0:
255,9,47305,2,0,P|272:55|261:103,1,99,0|0,0:0|0:0,0:0:0:0:
220,216,48711,2,0,L|216:299,2,66,2|0|0,0:0|0:0|0:0,0:0:0:0:
290,178,50117,2,0,P|328:183|363:212,1,66,10|0,0:0|0:0,0:0:0:0:
404,257,51055,1,0,0:0:0:0:
396,336,51524,6,0,P|434:331|469:302,2,66,2|0|0,0:0|0:0|0:0,0:0:0:0:
317,351,52930,2,0,P|269:340|213:365,2,99,2|0|2,0:0|0:0|0:0,0:0:0:0:
387,121,55742,2,0,P|435:110|491:135,2,99,0|0|2,0:0|0:0|0:0,0:0:0:0:
387,121,62774,6,0,L|396:17,2,99,4|2|2,3:2|0:3|0:0,0:0:0:0:
280,177,64883,1,0,0:0:0:0:
229,68,65586,2,0,P|263:55|309:61,2,66,2|0|0,0:3|0:0|0:0,0:0:0:0:
170,122,66992,2,0,P|127:143|45:84,1,132,2|0,0:0|0:0,0:0:0:0:
9,174,68399,6,0,L|-3:329,1,132,4|0,1:2|0:0,0:0:0:0:
76,289,69805,2,0,L|81:212,2,66,2|0|0,0:0|0:0|0:0,0:0:0:0:
144,331,71211,1,2,0:3:0:0:
218,302,71680,2,0,P|278:288|339:325,1,132,0|10,0:0|0:0,0:0:0:0:
480,129,74024,6,0,L|360:138,1,99,4|0,3:2|0:0,0:0:0:0:
275,79,75430,2,0,P|276:33|299:2,2,66,2|0|0,0:0|0:0|0:0,0:0:0:0:
300,154,76836,2,0,P|302:185|256:243,2,99,2|0|2,1:2|0:0|0:0,0:0:0:0:
184,42,79180,1,0,0:0:0:0:
118,87,79649,2,0,L|10:97,1,99,4|2,3:2|0:0,0:0:0:0:
13,216,81055,2,0,P|73:210|126:267,1,132,2|0,0:0|0:0,0:0:0:0:
100,334,82461,6,0,L|0:343,2,99,2|0|10,1:2|0:0|0:0,0:0:0:0:
238,254,84805,1,0,0:0:0:0:
305,297,85274,2,0,P|317:251|303:206,2,66,4|0|0,3:2|0:3|0:0,0:0:0:0:
250,355,86680,2,0,P|300:347|364:374,1,99,0|2,0:0|0:0,0:0:0:0:
446,295,88086,2,0,L|515:307,2,66,0|0|0,1:0|0:0|0:0,0:0:0:0:
417,220,89492,2,0,P|413:157|450:106,1,99,2|2,0:0|0:3,0:0:0:0:
497,26,90899,5,4,3:2:0:0:
256,192,91133,12,4,96524,3:2:0:0:
155,125,97461,6,0,L|80:132,1,66,0|2,0:0|0:0,0:0:0:0:
38,283,98867,2,0,L|104:289,1,66,0|2,0:0|0:0,0:0:0:0:
260,255,100274,2,0,P|259:211|243:181,1,66,0|2,0:0|0:3,0:0:0:0:
184,144,101211,2,0,P|182:110|193:79,1,66,0|2,0:0|0:0,0:0:0:0:
250,23,102149,5,4,3:2:0:0:
391,97,103086,1,0,0:0:0:0:
452,45,103555,2,0,P|470:83|413:176,1,132,2|0,0:0|0:0,0:0:0:0:
358,170,104961,2,0,P|340:208|397:301,1,132,2|0,0:0|0:0,0:0:0:0:
451,280,106367,1,10,0:0:0:0:
420,353,106836,2,0,L|285:344,1,132,0|4,0:0|3:2,0:0:0:0:
144,271,108711,6,0,P|138:224|153:190,1,66,0|2,0:0|0:0,0:0:0:0:
221,66,110117,1,0,0:0:0:0:
288,109,110586,2,0,B|219:90|219:132|147:108,1,132,2|0,0:0|0:0,0:0:0:0:
93,62,111992,1,10,0:0:0:0:
12,207,113399,6,0,L|23:322,1,99,2|0,0:0|0:0,0:0:0:0:
123,369,114805,2,0,P|159:371|216:332,1,99,2|0,0:0|0:0,0:0:0:0:
233,220,116211,2,0,L|226:153,2,66,2|0|0,0:0|0:0|0:0,0:0:0:0:
276,287,117617,1,2,0:0:0:0:
500,371,119024,6,0,P|498:321|448:265,1,99,2|0,0:0|0:0,0:0:0:0:
356,245,120430,2,0,P|358:195|408:139,1,99,2|0,0:0|0:0,0:0:0:0:
493,104,121836,2,0,P|506:61|500:13,2,66,2|0|0,0:0|0:0|0:0,0:0:0:0:
424,61,123242,2,0,P|413:17|384:-21,1,66,2|0,0:0|0:0,0:0:0:0:
345,54,124180,1,0,0:0:0:0:
268,29,124649,6,0,L|158:41,1,99,2|0,0:0|0:0,0:0:0:0:
146,158,126055,2,0,L|256:170,1,99,2|0,0:0|0:0,0:0:0:0:
349,228,127461,2,0,P|357:195|349:157,2,66,0|0|0,0:0|0:0|0:0,0:0:0:0:
274,255,128867,2,0,B|211:236|211:285|130:260,1,132,2|0,0:0|0:0,0:0:0:0:
66,286,130274,6,0,P|64:240|78:214,1,66,2|0,0:0|0:0,0:0:0:0:
144,186,131211,1,0,0:0:0:0:
116,110,131680,2,0,L|110:8,2,99,2|0|2,0:0|0:0|0:0,0:0:0:0:
194,93,133555,2,0,L|189:21,2,66,0|2|0,0:0|0:0|0:0,0:0:0:0:
321,296,135899,6,0,P|363:301|419:273,1,99,2|2,0:0|0:0,0:0:0:0:
483,179,137305,2,0,P|438:156|351:172,1,132,2|0,0:0|0:0,0:0:0:0:
293,214,138711,2,0,L|300:305,2,66,0|0|2,0:0|0:0|0:0,0:0:0:0:
284,134,140117,1,10,0:0:0:0:
112,6,141524,6,0,P|91:49|101:108,1,99,2|0,0:0|0:0,0:0:0:0:
191,173,142930,2,0,P|212:216|202:275,1,99,2|0,0:0|0:0,0:0:0:0:
109,338,144336,2,0,L|28:332,2,66,2|0|0,0:0|0:0|0:0,0:0:0:0:
188,346,145742,1,10,0:0:0:0:
390,216,147149,6,0,P|337:222|299:258,1,99,2|0,0:0|0:0,0:0:0:0:
350,361,148555,2,0,P|403:355|441:319,1,99,0|0,0:0|0:0,0:0:0:0:
470,209,149961,2,0,L|478:121,2,66,2|0|0,0:0|0:0|0:0,0:0:0:0:
390,216,151367,1,10,0:0:0:0:
396,136,151836,1,0,0:0:0:0:
323,170,152305,1,0,0:0:0:0:
248,140,152774,6,0,P|197:138|161:123,2,66,2|0|0,0:0|0:0|0:0,0:0:0:0:
292,73,154180,2,0,P|313:39|392:17,2,99,2|0|2,0:0|0:0|0:0,0:0:0:0:
292,311,156992,2,0,P|313:345|392:367,2,99,0|0|2,0:0|0:0|0:0,0:0:0:0:
342,159,159336,6,0,L|418:168,1,66,0|2,0:0|0:0,0:0:0:0:
258,222,160742,2,0,L|182:231,1,66,0|2,0:0|0:0,0:0:0:0:
41,176,162149,1,0,0:0:0:0:
69,101,162617,2,0,P|70:172|119:211,1,132,10|0,0:0|0:0,0:0:0:0:
186,175,164024,6,0,P|228:156|288:170,1,99,4|0,3:2|0:0,0:0:0:0:
343,266,165430,2,0,P|388:285|436:276,1,99,2|0,0:0|0:0,0:0:0:0:
473,161,166836,2,0,L|482:68,2,66,2|0|0,0:3|0:0|0:0,0:0:0:0:
396,184,168242,1,2,0:0:0:0:
287,66,169180,1,0,0:0:0:0:
228,120,169649,6,0,B|249:187|203:187|238:265,1,132,4|0,1:2|0:0,0:0:0:0:
292,303,171055,2,0,P|331:298|369:312,2,66,2|0|0,0:0|0:0|0:0,0:0:0:0:
228,352,172461,1,2,0:3:0:0:
153,322,172930,2,0,L|7:339,1,132,0|10,0:0|0:0,0:0:0:0:
40,98,175274,6,0,P|100:119|118:165,1,99,4|0,3:2|0:0,0:0:0:0:
88,265,176680,2,0,L|3:276,2,66,2|0|0,0:0|0:0|0:0,0:0:0:0:
150,215,178086,2,0,P|211:209|256:241,1,99,2|0,1:2|0:0,0:0:0:0:
321,318,179492,2,0,L|328:177,1,132,2|0,0:0|0:0,0:0:0:0:
388,133,180899,6,0,P|436:135|486:182,2,99,4|2|2,3:2|0:0|0:0,0:0:0:0:
327,184,182774,2,0,L|255:187,1,66,0|0,0:0|0:0,0:0:0:0:
191,147,183711,2,0,P|143:149|93:196,2,99,2|0|10,1:2|0:0|0:0,0:0:0:0:
154,302,186055,1,0,0:0:0:0:
226,267,186524,6,0,L|297:270,1,66,4|0,3:2|0:3,0:0:0:0:
365,303,187461,1,0,0:0:0:0:
436,338,187930,2,0,P|476:322|504:268,1,99,0|2,0:0|0:0,0:0:0:0:
456,163,189336,6,0,L|470:81,2,66,0|0|0,1:0|0:0|0:0,0:0:0:0:
384,126,190742,2,0,P|340:124|289:177,1,99,2|2,0:0|0:3,0:0:0:0:
188,208,192149,6,0,L|178:119,1,66,4|0,3:2|0:0,0:0:0:0:
120,88,193086,2,0,P|79:79|47:85,1,66,0|2,0:0|0:0,0:0:0:0:
7,235,194492,2,0,P|40:238|72:229,1,66,0|2,0:0|0:0,0:0:0:0:
198,130,195899,1,0,0:0:0:0:
273,102,196367,2,0,P|306:98|338:107,1,66,10|0,0:0|0:0,0:0:0:0:
464,206,197774,6,0,L|457:291,1,66,4|0,3:2|0:0,0:0:0:0:
403,330,198711,1,0,0:0:0:0:
329,297,199180,2,0,P|277:271|213:307,1,132,2|0,0:0|0:0,0:0:0:0:
173,372,200586,2,0,L|169:234,1,132,2|0,0:0|0:0,0:0:0:0:
96,206,201992,1,2,0:3:0:0:
161,159,202461,2,0,P|204:166|232:191,1,66,0|10,0:0|0:0,0:0:0:0:
269,243,203399,6,0,L|356:251,1,66,4|0,3:2|0:0,0:0:0:0:
402,205,204336,2,0,P|413:170|407:132,1,66,0|2,0:0|0:0,0:0:0:0:
295,28,205742,2,0,P|292:61|303:92,1,66,0|2,0:0|0:0,0:0:0:0:
335,249,207149,2,0,P|337:282|326:313,1,66,0|10,0:0|0:0,0:0:0:0:
249,333,208086,2,0,B|185:316|184:366|96:337,1,132,0|4,0:0|3:2,0:0:0:0:
17,219,209961,6,0,L|11:136,1,66,0|2,0:0|0:0,0:0:0:0:
149,69,211367,2,0,L|144:135,1,66,0|2,0:0|0:0,0:0:0:0:
132,214,212305,2,0,P|166:214|202:190,1,66,0|0,0:0|0:0,0:0:0:0:
225,125,213242,1,10,0:0:0:0:
