osu file format v14

[General]
AudioFilename: audio.mp3
AudioLeadIn: 0
PreviewTime: 135745
Countdown: 0
SampleSet: Soft
StackLeniency: 0.5
Mode: 0
LetterboxInBreaks: 0
WidescreenStoryboard: 1

[Editor]
DistanceSpacing: 1
BeatDivisor: 2
GridSize: 4
TimelineZoom: 1

[Metadata]
Title:Vague Hope - Cold Rain
TitleUnicode:曖昧ナ希望/氷雨
Artist:Keigo Hoashi
ArtistUnicode:帆足圭吾
Creator:Aeril
Version:Hard
Source:NieR:Automata
Tags:monaca ニーア オートマタ platinumgames square enix nier automata
BeatmapID:1426293
BeatmapSetID:672727

[Difficulty]
HPDrainRate:5
CircleSize:4
OverallDifficulty:6
ApproachRate:6.5
SliderMultiplier:0.79
SliderTickRate:1

[Events]
//Background and Video events
0,0,"vague hope.jpg",0,0
//Break Periods
//Storyboard Layer 0 (Background)
//Storyboard Layer 1 (Fail)
//Storyboard Layer 2 (Pass)
//Storyboard Layer 3 (Foreground)
//Storyboard Sound Samples

[TimingPoints]
899,468.75,6,2,1,5,1,0
899,-100,6,2,1,5,0,0
3711,-100,6,2,1,15,0,0
6524,-100,6,2,1,25,0,0
9336,-100,6,2,1,35,0,0
12149,-100,6,2,1,40,0,0
55742,-100,6,2,1,30,0,0
62774,-100,6,2,1,55,0,0
90899,-100,6,2,1,45,0,0
113399,-100,6,2,1,40,0,0
156992,-100,6,2,1,30,0,0
158399,-100,6,2,1,40,0,0
164024,-100,6,2,1,55,0,0
203399,-100,6,2,1,45,0,0

[Colours]
Combo1 : 54,87,137
Combo2 : 192,192,192
Combo3 : 97,97,97
Combo4 : 173,199,226

[HitObjects]
492,45,899,6,0,P|420:47|385:105,1,118.5,0|0,0:0|0:0,0:0:0:0:
392,120,1836,2,0,L|396:174,2,39.5,0|0|2,0:0|0:0|0:0,0:0:0:0:
289,57,3008,1,0,0:0:0:0:
240,166,3711,2,0,B|165:154|165:212|62:181,1,158,0|0,0:0|0:0,0:0:0:0:
58,217,4883,2,0,L|63:279,1,39.5,0|2,0:0|0:0,0:0:0:0:
283,346,6524,6,0,P|286:299|266:260,1,79,2|0,0:0|0:0,0:0:0:0:
196,292,7461,2,0,L|150:296,2,39.5,0|0|2,0:0|0:0|0:0,0:0:0:0:
258,189,8633,1,0,0:0:0:0:
358,255,9336,2,0,P|380:296|404:201,1,237,0|10,0:0|0:0,0:0:0:0:
416,201,12149,6,0,L|418:115,1,79,2|0,0:0|0:0,0:0:0:0:
399,85,12852,2,0,L|397:26,1,39.5,0|0,0:0|0:0,0:0:0:0:
326,8,13555,2,0,P|308:56|238:85,1,118.5,2|0,0:0|0:0,0:0:0:0:
76,35,14961,5,2,0:0:0:0:
121,100,15430,1,0,0:0:0:0:
87,171,15899,1,0,0:0:0:0:
131,237,16367,1,2,0:0:0:0:
131,237,17774,6,0,P|180:229|223:249,1,79,2|0,0:0|0:0,0:0:0:0:
245,253,18477,2,0,P|280:258|303:253,1,39.5,0|0,0:0|0:0,0:0:0:0:
334,319,19180,2,0,L|339:190,1,118.5,2|0,0:0|0:0,0:0:0:0:
459,65,20586,5,2,0:0:0:0:
454,144,21055,1,0,0:0:0:0:
449,224,21524,1,0,0:0:0:0:
377,129,21992,2,0,P|428:132|454:144,2,79,2|0|0,0:0|0:0|0:0,0:0:0:0:
301,103,23399,6,0,B|189:113,1,79,2|0,0:0|0:0,0:0:0:0:
187,132,24102,2,0,L|134:129,1,39.5,0|0,0:0|0:0,0:0:0:0:
70,106,24805,2,0,P|70:153|90:189,1,79,2|0,0:0|0:0,0:0:0:0:
115,206,25508,2,0,L|154:208,1,39.5,0|0,0:0|0:0,0:0:0:0:
227,306,26211,5,0,0:0:0:0:
148,290,26680,1,0,0:0:0:0:
95,351,27149,1,0,0:0:0:0:
174,367,27617,1,2,0:0:0:0:
174,367,29024,6,0,P|211:346|269:355,1,79,2|0,0:0|0:0,0:0:0:0:
282,366,29727,2,0,L|344:357,1,39.5,0|0,0:0|0:0,0:0:0:0:
377,303,30430,2,0,P|433:305|488:344,2,118.5,2|0|2,0:0|0:0|0:0,0:0:0:0:
315,251,32305,2,0,P|263:244|233:223,2,79,0|2|0,0:0|0:0|0:0,0:0:0:0:
315,251,34649,6,0,L|324:135,1,79,2|0,0:0|0:0,0:0:0:0:
352,146,35352,1,2,0:0:0:0:
352,146,35586,2,0,L|349:96,1,39.5,0|2,0:0|0:0,0:0:0:0:
305,25,36055,2,0,P|361:79|437:66,1,158,2|0,0:0|0:0,0:0:0:0:
482,131,37461,6,0,L|488:219,1,79,0|0,0:0|0:0,0:0:0:0:
449,281,38399,2,0,L|446:325,2,39.5,2|0|10,0:0|0:0|0:0,0:0:0:0:
292,153,40274,6,0,P|248:159|209:196,1,79,2|0,0:0|0:0,0:0:0:0:
199,214,40977,1,0,0:0:0:0:
199,214,41211,2,0,L|202:271,1,39.5,0|2,0:0|0:0,0:0:0:0:
110,300,41680,2,0,L|116:180,1,118.5,2|0,0:0|0:0,0:0:0:0:
74,67,43086,6,0,P|106:36|145:27,2,79,2|0|0,0:0|0:0|0:0,0:0:0:0:
143,106,44492,1,10,0:0:0:0:
13,220,45899,6,0,L|25:320,1,79,2|0,0:0|0:0,0:0:0:0:
49,328,46602,2,0,L|45:375,2,39.5,0|0|2,0:0|0:0|0:0,0:0:0:0:
123,289,47305,2,0,P|175:294|212:325,1,79,0|0,0:0|0:0,0:0:0:0:
230,331,48008,2,0,P|282:326|319:295,1,79,0|0,0:0|0:0,0:0:0:0:
374,261,48711,6,0,L|383:359,2,79,2|0|0,0:0|0:0|0:0,0:0:0:0:
313,207,50117,2,0,P|351:181|405:187,1,79,10|0,0:0|0:0,0:0:0:0:
449,224,51055,1,0,0:0:0:0:
498,161,51524,6,0,P|503:109|479:70,1,79,2|0,0:0|0:0,0:0:0:0:
425,40,52461,1,0,0:0:0:0:
354,77,52930,2,0,P|311:79|222:51,2,118.5,2|0|2,0:0|0:0|0:0,0:0:0:0:
354,307,55742,2,0,P|311:304|222:333,1,118.5,0|0,0:0|0:0,0:0:0:0:
238,323,56680,2,0,P|261:274|259:225,1,79,0|2,0:0|0:0,0:0:0:0:
416,211,58086,6,0,L|346:215,1,39.5,0|0,0:0|0:0,0:0:0:0:
337,225,58555,2,0,L|236:220,1,79,2|0,0:0|0:0,0:0:0:0:
177,235,59492,2,0,P|175:215|180:196,1,39.5,0|0,0:0|0:0,0:0:0:0:
203,163,59961,6,0,P|211:114|184:61,1,79,2|0,0:0|0:0,0:0:0:0:
122,95,60899,2,0,L|70:89,1,39.5,0|0,0:0|0:0,0:0:0:0:
6,80,61367,1,10,0:0:0:0:
100,308,62774,6,0,P|114:251|74:182,1,118.5,4|2,3:2|0:3,0:0:0:0:
55,176,63711,2,0,L|-14:169,1,39.5,0|0,0:0|0:0,0:0:0:0:
118,110,64180,2,0,L|215:100,1,79,2|0,0:0|0:0,0:0:0:0:
237,98,64883,1,0,0:0:0:0:
349,139,65586,6,0,P|379:97|418:209,1,237,2|2,0:3|0:0,0:0:0:0:
375,347,67930,1,0,0:0:0:0:
375,347,68164,1,0,0:0:0:0:
375,347,68399,6,0,L|367:232,1,79,4|0,1:2|0:0,0:0:0:0:
451,245,69102,1,0,0:0:0:0:
451,245,69336,2,0,L|457:313,1,39.5,0|0,0:0|0:0,0:0:0:0:
369,267,69805,2,0,P|313:254|277:267,2,79,2|0|0,0:0|0:0|0:0,0:0:0:0:
392,190,71211,5,2,0:3:0:0:
466,160,71680,2,0,B|387:139|389:190|296:159,1,158,0|10,0:0|0:0,0:0:0:0:
156,254,74024,6,0,P|104:250|73:272,1,79,4|2,3:2|0:3,0:0:0:0:
59,296,74727,2,0,L|55:354,2,39.5,0|0|0,0:0|0:0|0:0,0:0:0:0:
9,232,75430,1,2,0:0:0:0:
69,179,75899,2,0,L|58:76,1,79,0|0,0:0|0:0,0:0:0:0:
110,37,76836,6,0,P|101:88|156:130,1,118.5,2|0,1:2|0:0,0:0:0:0:
188,130,77774,2,0,L|232:121,1,39.5,2|0,0:3|0:0,0:0:0:0:
312,122,78242,2,0,P|266:157|273:214,1,118.5,2|0,0:0|0:0,0:0:0:0:
300,244,79180,2,0,L|344:253,1,39.5,0|0,0:0|0:0,0:0:0:0:
395,316,79649,6,0,L|515:291,2,118.5,4|2|2,3:2|0:0|0:0,0:0:0:0:
319,343,81524,2,0,P|283:322|243:325,1,79,0|0,0:0|0:0,0:0:0:0:
171,353,82461,6,0,L|50:328,2,118.5,2|0|10,1:2|0:0|0:0,0:0:0:0:
245,324,84336,1,0,0:0:0:0:
228,245,84805,2,0,L|240:192,1,39.5,0|0,0:0|0:0,0:0:0:0:
249,168,85274,6,0,P|254:123|234:79,2,79,4|0|0,3:2|0:3|0:0,0:0:0:0:
174,137,86680,2,0,B|117:122|117:159|49:145,1,118.5,0|2,0:0|0:0,0:0:0:0:
83,29,88086,6,0,P|37:31|6:53,2,79,0|0|0,1:0|0:0|0:0,0:0:0:0:
158,56,89492,2,0,L|246:46,1,79,2|0,0:0|0:0,0:0:0:0:
267,20,90195,2,0,L|346:29,1,79,2|0,0:3|0:0,0:0:0:0:
372,108,90899,6,0,P|391:57|485:76,1,158,4|0,3:2|0:0,0:0:0:0:
500,104,92070,1,0,0:0:0:0:
500,104,92305,2,0,L|487:247,1,118.5,2|0,0:0|0:0,0:0:0:0:
462,253,93242,2,0,L|455:324,1,39.5,0|0,0:0|0:0,0:0:0:0:
368,310,93711,6,0,P|367:261|389:221,2,79,2|0|0,0:0|0:0|0:0,0:0:0:0:
359,348,94883,1,0,0:0:0:0:
359,348,95117,2,0,L|301:357,1,39.5,10|0,0:0|0:0,0:0:0:0:
285,334,95586,2,0,P|220:314|173:382,1,158,0|4,0:0|3:2,0:0:0:0:
153,221,97461,6,0,L|145:158,1,39.5,0|0,0:0|0:0,0:0:0:0:
141,141,97930,1,2,0:0:0:0:
30,25,98867,2,0,L|22:88,1,39.5,0|0,0:0|0:0,0:0:0:0:
19,105,99336,1,2,0:0:0:0:
170,55,100274,6,0,L|175:15,1,39.5,0|0,0:0|0:0,0:0:0:0:
244,97,100742,2,0,L|297:101,1,39.5,2|0,0:3|0:0,0:0:0:0:
363,95,101211,2,0,L|266:102,1,79,0|2,0:0|0:0,0:0:0:0:
242,215,102149,6,0,P|237:264|254:311,1,79,4|0,3:2|0:0,0:0:0:0:
274,373,103086,2,0,L|234:377,2,39.5,0|0|2,0:0|0:0|0:0,0:0:0:0:
415,297,104492,2,0,L|481:290,2,39.5,0|0|2,0:0|0:0|0:0,0:0:0:0:
335,158,105898,6,0,L|269:151,1,39.5,0|0,0:0|0:0,0:0:0:0:
281,70,106367,2,0,L|347:77,1,39.5,10|0,0:0|0:0,0:0:0:0:
356,56,106836,2,0,P|404:33|483:111,1,158,0|4,0:0|3:2,0:0:0:0:
389,221,108711,6,0,L|442:226,2,39.5,0|0|2,0:0|0:0|0:0,0:0:0:0:
238,165,110117,2,0,L|185:170,1,39.5,0|0,0:0|0:0,0:0:0:0:
165,191,110586,6,0,L|54:180,2,79,2|0|0,0:0|0:0|0:0,0:0:0:0:
205,260,111992,1,10,0:0:0:0:
60,319,113399,6,0,P|99:314|151:345,1,79,2|0,0:0|0:0,0:0:0:0:
167,353,114102,2,0,L|218:348,1,39.5,0|0,0:0|0:0,0:0:0:0:
276,308,114805,2,0,P|332:293|379:327,1,118.5,2|0,0:0|0:0,0:0:0:0:
495,190,116211,5,2,0:0:0:0:
416,173,116680,1,0,0:0:0:0:
395,95,117149,1,0,0:0:0:0:
443,31,117617,1,2,0:0:0:0:
443,31,119024,6,0,L|338:39,1,79,2|0,0:0|0:0,0:0:0:0:
327,56,119727,2,0,L|274:51,1,39.5,0|0,0:0|0:0,0:0:0:0:
212,23,120430,2,0,P|164:29|120:93,1,118.5,2|0,0:0|0:0,0:0:0:0:
35,241,121836,5,2,0:0:0:0:
102,198,122305,1,0,0:0:0:0:
178,223,122774,1,0,0:0:0:0:
209,339,123242,2,0,P|159:339|129:327,2,79,2|0|0,0:0|0:0|0:0,0:0:0:0:
279,301,124649,6,0,P|331:303|373:334,1,79,2|0,0:0|0:0,0:0:0:0:
382,344,125352,2,0,L|438:337,1,39.5,0|0,0:0|0:0,0:0:0:0:
472,277,126055,2,0,L|482:191,1,79,2|0,0:0|0:0,0:0:0:0:
464,161,126758,2,0,L|471:106,1,39.5,0|0,0:0|0:0,0:0:0:0:
408,17,127461,5,0,0:0:0:0:
377,90,127930,1,0,0:0:0:0:
298,105,128399,1,0,0:0:0:0:
242,47,128867,1,2,0:0:0:0:
242,47,130274,6,0,P|221:99|234:152,1,79,2|0,0:0|0:0,0:0:0:0:
247,152,130977,2,0,L|250:218,1,39.5,0|0,0:0|0:0,0:0:0:0:
295,256,131680,2,0,L|291:388,2,118.5,2|0|2,0:0|0:0|0:0,0:0:0:0:
353,201,133555,2,0,P|404:200|438:222,2,79,0|2|0,0:0|0:0|0:0,0:0:0:0:
353,201,135899,6,0,L|260:196,1,79,2|0,0:0|0:0,0:0:0:0:
238,177,136602,1,2,0:0:0:0:
238,177,136836,2,0,L|168:185,1,39.5,0|2,0:0|0:0,0:0:0:0:
137,236,137305,2,0,P|117:194|133:133,1,79,2|0,0:0|0:0,0:0:0:0:
174,104,138242,2,0,L|178:57,1,39.5,0|0,0:0|0:0,0:0:0:0:
157,29,138711,6,0,P|118:14|69:30,1,79,0|0,0:0|0:0,0:0:0:0:
39,89,139649,2,0,L|-10:84,2,39.5,2|0|10,0:0|0:0|0:0,0:0:0:0:
63,328,141524,6,0,P|98:307|155:310,1,79,2|0,0:0|0:0,0:0:0:0:
170,325,142227,1,0,0:0:0:0:
170,325,142461,2,0,L|228:332,1,39.5,0|2,0:0|0:0,0:0:0:0:
284,293,142930,2,0,P|339:297|384:335,1,79,2|0,0:0|0:0,0:0:0:0:
397,323,143633,2,0,P|452:319|497:281,1,79,0|0,0:0|0:0,0:0:0:0:
504,233,144336,6,0,L|511:150,2,79,2|0|0,0:0|0:0|0:0,0:0:0:0:
424,242,145742,1,10,0:0:0:0:
287,44,147149,6,0,P|279:95|299:129,1,79,2|0,0:0|0:0,0:0:0:0:
320,146,147852,2,0,L|395:158,2,39.5,0|0|2,0:0|0:0|0:0,0:0:0:0:
255,193,148555,2,0,L|167:202,1,79,0|0,0:0|0:0,0:0:0:0:
140,220,149258,2,0,P|132:270|158:321,1,79,0|0,0:0|0:0,0:0:0:0:
212,334,149961,6,0,P|253:314|311:331,2,79,2|0|0,0:0|0:0|0:0,0:0:0:0:
145,379,151367,2,0,L|40:359,1,79,10|0,0:0|0:0,0:0:0:0:
20,298,152305,1,0,0:0:0:0:
102,210,152774,6,0,P|113:162|92:113,1,79,2|0,0:0|0:0,0:0:0:0:
52,72,153711,1,0,0:0:0:0:
105,12,154180,2,0,L|235:1,2,118.5,2|0|2,0:0|0:0|0:0,0:0:0:0:
37,242,156992,2,0,L|167:253,1,118.5,0|0,0:0|0:0,0:0:0:0:
155,251,157930,2,0,P|144:211|154:160,1,79,0|2,0:0|0:0,0:0:0:0:
225,37,159336,6,0,L|295:31,1,39.5,0|0,0:0|0:0,0:0:0:0:
303,30,159805,1,2,0:0:0:0:
377,172,160742,2,0,L|450:176,1,39.5,0|0,0:0|0:0,0:0:0:0:
456,157,161211,6,0,P|473:115|461:63,1,79,2|0,0:0|0:0,0:0:0:0:
401,39,162149,2,0,L|396:-10,2,39.5,0|0|10,0:0|0:0|0:0,0:0:0:0:
458,272,164024,6,0,P|410:258|345:319,1,118.5,4|0,3:2|0:0,0:0:0:0:
336,329,164961,2,0,L|277:340,1,39.5,0|0,0:0|0:0,0:0:0:0:
227,293,165430,2,0,L|94:282,2,118.5,2|0|2,0:0|0:0|0:3,0:0:0:0:
276,230,167305,5,0,0:0:0:0:
242,157,167774,1,0,0:0:0:0:
163,170,168242,2,0,L|49:162,1,79,2|0,0:0|0:0,0:0:0:0:
33,55,169180,1,0,0:0:0:0:
33,55,169414,1,0,0:0:0:0:
33,55,169649,6,0,P|79:73|128:63,1,79,4|0,1:2|0:0,0:0:0:0:
173,21,170352,1,0,0:0:0:0:
173,21,170586,2,0,L|237:28,1,39.5,0|0,0:0|0:0,0:0:0:0:
286,60,171055,2,0,L|403:52,2,79,2|0|0,0:0|0:0|0:0,0:0:0:0:
253,133,172461,5,2,0:3:0:0:
291,202,172930,2,0,P|353:218|415:123,1,158,0|10,0:0|0:0,0:0:0:0:
415,155,175274,6,0,L|409:254,1,79,4|2,3:2|0:3,0:0:0:0:
430,269,175977,2,0,L|426:335,1,39.5,0|0,0:0|0:0,0:0:0:0:
357,353,176445,1,0,0:0:0:0:
357,353,176680,2,0,P|313:330|267:334,1,79,2|0,0:0|0:0,0:0:0:0:
210,361,177617,1,0,0:0:0:0:
137,328,178086,6,0,L|47:334,1,79,2|0,1:2|0:0,0:0:0:0:
29,303,178789,2,0,P|10:260|23:212,1,79,0|0,0:0|0:0,0:0:0:0:
30,191,179492,1,2,0:0:0:0:
77,38,180430,1,0,0:0:0:0:
77,38,180664,1,0,0:0:0:0:
77,38,180899,6,0,L|92:125,1,79,4|2,3:2|0:3,0:0:0:0:
138,184,181602,2,0,P|173:130|164:85,1,79,2|0,0:0|0:0,0:0:0:0:
221,50,182305,2,0,B|305:31|305:88|382:54,1,158,2|0,0:0|0:0,0:0:0:0:
451,27,183711,6,0,P|435:74|449:130,1,79,2|0,1:2|0:0,0:0:0:0:
485,173,184414,2,0,P|501:220|487:276,1,79,0|0,0:0|0:0,0:0:0:0:
421,228,185117,2,0,B|362:213|362:250|286:227,1,118.5,10|0,0:0|0:0,0:0:0:0:
264,218,186055,2,0,L|215:221,1,39.5,0|0,0:0|0:0,0:0:0:0:
162,272,186524,6,0,P|115:255|67:270,2,79,4|0|0,3:2|0:3|0:0,0:0:0:0:
213,333,187930,2,0,L|316:329,1,79,0|0,0:0|0:0,0:0:0:0:
332,327,188633,1,2,0:0:0:0:
404,231,189336,6,0,P|451:214|499:229,2,79,0|0|0,1:0|0:0|0:0,0:0:0:0:
333,192,190742,2,0,P|316:138|347:72,1,118.5,2|2,0:0|0:3,0:0:0:0:
337,82,192149,6,0,L|231:87,1,79,4|0,3:2|0:0,0:0:0:0:
182,111,193086,2,0,L|131:107,1,39.5,0|0,0:0|0:0,0:0:0:0:
102,105,193555,1,2,0:0:0:0:
52,257,194492,2,0,L|103:253,1,39.5,0|0,0:0|0:0,0:0:0:0:
128,236,194961,6,0,P|185:238|219:270,1,79,2|0,0:0|0:0,0:0:0:0:
250,313,195899,2,0,L|309:321,1,39.5,0|0,0:0|0:0,0:0:0:0:
365,296,196367,2,0,L|424:304,1,39.5,10|0,0:0|0:0,0:0:0:0:
440,319,196836,2,0,P|484:299|477:197,1,158,0|4,0:0|3:2,0:0:0:0:
400,61,198711,6,0,L|398:12,2,39.5,0|0|2,0:0|0:0|0:0,0:0:0:0:
324,202,200117,2,0,L|322:251,2,39.5,0|0|2,0:0|0:0|0:0,0:0:0:0:
211,88,201524,6,0,L|212:127,1,39.5,0|0,0:0|0:0,0:0:0:0:
150,183,201992,1,2,0:3:0:0:
150,183,202227,1,0,0:0:0:0:
150,183,202461,2,0,P|91:184|64:197,1,79,0|10,0:0|0:0,0:0:0:0:
18,299,203399,6,0,P|55:310|95:307,1,79,4|0,3:2|0:0,0:0:0:0:
171,281,204336,2,0,L|224:288,1,39.5,0|0,0:0|0:0,0:0:0:0:
250,292,204805,1,2,0:0:0:0:
388,212,205742,2,0,L|335:219,1,39.5,0|0,0:0|0:0,0:0:0:0:
309,223,206211,1,2,0:0:0:0:
168,146,207149,6,0,L|128:140,1,39.5,0|0,0:0|0:0,0:0:0:0:
160,60,207617,2,0,L|199:54,1,39.5,10|0,0:0|0:0,0:0:0:0:
236,39,208086,2,0,P|296:40|336:139,1,158,0|4,0:0|3:2,0:0:0:0:
335,280,209961,6,0,L|347:352,2,39.5,0|0|2,0:0|0:0|0:0,0:0:0:0:
177,280,211367,2,0,L|165:352,2,39.5,0|0|2,0:0|0:0|0:0,0:0:0:0:
106,242,212305,2,0,P|142:206|195:199,1,79,0|0,0:0|0:0,0:0:0:0:
256,272,213242,1,10,0:0:0:0:
