osu file format v14

[General]
AudioFilename: audio.mp3
AudioLeadIn: 0
PreviewTime: 135745
Countdown: 0
SampleSet: Soft
StackLeniency: 0.3
Mode: 0
LetterboxInBreaks: 0
WidescreenStoryboard: 1

[Editor]
DistanceSpacing: 1
BeatDivisor: 4
GridSize: 4
TimelineZoom: 1

[Metadata]
Title:Vague Hope - Cold Rain
TitleUnicode:曖昧ナ希望/氷雨
Artist:Keigo Hoashi
ArtistUnicode:帆足圭吾
Creator:Aeril
Version:Belief
Source:NieR:Automata
Tags:monaca ニーア オートマタ platinumgames square enix nier automata
BeatmapID:1421993
BeatmapSetID:672727

[Difficulty]
HPDrainRate:5.5
CircleSize:4.5
OverallDifficulty:8
ApproachRate:8.5
SliderMultiplier:0.93
SliderTickRate:1

[Events]
//Background and Video events
0,0,"vague hope.jpg",0,0
//Break Periods
//Storyboard Layer 0 (Background)
//Storyboard Layer 1 (Fail)
//Storyboard Layer 2 (Pass)
//Storyboard Layer 3 (Foreground)
//Storyboard Sound Samples

[TimingPoints]
899,468.75,6,2,1,5,1,0
899,-133.333333333333,6,2,1,5,0,0
3711,-133.333333333333,6,2,1,15,0,0
6524,-133.333333333333,6,2,1,25,0,0
9336,-133.333333333333,6,2,1,35,0,0
12149,-200,6,2,1,40,0,0
34649,-133.333333333333,6,2,1,40,0,0
55742,-133.333333333333,6,2,1,30,0,0
62774,-100,6,2,1,55,0,0
90899,-133.333333333333,6,2,1,45,0,0
113399,-200,6,2,1,40,0,0
135899,-133.333333333333,6,2,1,40,0,0
156992,-133.333333333333,6,2,1,30,0,0
158399,-133.333333333333,6,2,1,40,0,0
164024,-100,6,2,1,55,0,0
203399,-133.333333333333,6,2,1,45,0,0
209961,-200,6,2,1,45,0,0
213008,-66.6666666666667,6,2,1,45,0,0

[Colours]
Combo1 : 54,87,137
Combo2 : 192,192,192
Combo3 : 97,97,97
Combo4 : 173,199,226

[HitObjects]
54,119,899,6,0,B|104:107|104:138|159:121,1,104.625003991127
174,52,1836,1,0,0:0:0:0:
167,34,2070,1,0,0:0:0:0:
160,17,2305,2,0,L|155:133,1,104.625003991127,2|0,0:0|0:0,0:0:0:0:
190,328,3711,2,0,P|207:285|91:264,1,209.250007982254,0|2,0:0|0:0,0:0:0:0:
92,261,6524,6,0,P|136:265|171:251,1,69.7500026607514,2|0,0:0|0:0,0:0:0:0:
174,246,7227,1,0,0:0:0:0:
214,351,7461,2,0,L|216:309,1,34.8750013303757
316,316,7930,2,0,P|265:303|215:315,1,104.625003991127,2|0,0:0|0:0,0:0:0:0:
331,205,9336,2,0,P|344:288|440:245,1,209.250007982254,0|10,0:0|0:0,0:0:0:0:
426,89,12149,6,0,L|371:94,1,46.5,2|0,0:0|0:0,0:0:0:0:
329,144,12852,2,0,L|297:147,1,23.25
379,93,13555,2,0,P|383:58|374:26,1,69.75,2|0,0:0|0:0,0:0:0:0:
165,69,14961,5,2,0:0:0:0:
302,68,15430,1,0,0:0:0:0:
233,107,15899,1,0,0:0:0:0:
234,187,16367,1,2,0:0:0:0:
31,233,17774,6,0,P|56:212|79:207,1,46.5,2|0,0:0|0:0,0:0:0:0:
138,229,18477,2,0,L|169:232,1,23.25
88,294,19180,2,0,L|81:374,1,69.75,2|0,0:0|0:0,0:0:0:0:
69,208,20586,5,2,0:0:0:0:
161,231,21055,1,0,0:0:0:0:
135,140,21524,1,0,0:0:0:0:
219,354,21992,5,2,0:0:0:0:
195,356,22461,1,0,0:0:0:0:
171,359,22930,1,0,0:0:0:0:
279,244,23399,6,0,P|310:245|326:251,1,46.5,2|0,0:0|0:0,0:0:0:0:
411,283,24102,2,0,L|378:289,1,23.25
411,283,24805,2,0,L|415:228,1,46.5,2|0,0:0|0:0,0:0:0:0:
372,171,25508,2,0,L|371:148,1,23.25
481,79,26211,5,0,0:0:0:0:
418,28,26680,1,0,0:0:0:0:
350,71,27149,1,0,0:0:0:0:
371,148,27617,1,2,0:0:0:0:
371,148,29024,6,0,P|328:139|309:139,1,46.5,2|0,0:0|0:0,0:0:0:0:
258,170,29727,2,0,L|221:172,1,23.25
89,104,30430,2,0,P|58:110|23:143,1,69.75,2|0,0:0|0:0,0:0:0:0:
89,104,31836,5,2,0:0:0:0:
97,185,32305,1,0,0:0:0:0:
101,225,32774,1,2,0:0:0:0:
103,245,33242,1,0,0:0:0:0:
103,245,34649,6,0,P|143:250|181:273,1,69.7500026607514,2|0,0:0|0:0,0:0:0:0:
186,285,35352,1,2,0:0:0:0:
120,371,35586,2,0,L|119:320,1,34.8750013303757,0|2,0:0|0:0,0:0:0:0:
273,161,36055,2,0,P|259:212|278:270,1,104.625003991127,2|0,0:0|0:0,0:0:0:0:
283,286,36992,2,0,L|282:337,1,34.8750013303757
439,262,37461,6,0,L|352:251,1,69.7500026607514
369,253,38399,1,2,0:0:0:0:
338,184,38633,1,0,0:0:0:0:
372,76,38867,1,10,0:0:0:0:
372,76,40274,6,0,P|333:57|281:71,1,69.7500026607514,2|0,0:0|0:0,0:0:0:0:
242,87,40977,2,0,L|202:79,1,34.8750013303757
181,89,41445,1,2,0:0:0:0:
196,222,41680,2,0,P|215:183|205:133,1,69.7500026607514,2|0,0:0|0:0,0:0:0:0:
196,222,42383,2,0,L|200:303,1,69.7500026607514
36,324,43086,5,2,0:0:0:0:
118,308,43555,1,0,0:0:0:0:
199,291,44024,1,0,0:0:0:0:
36,324,44492,1,10,0:0:0:0:
36,324,45899,6,0,P|74:318|119:340,1,69.7500026607514,2|0,0:0|0:0,0:0:0:0:
123,347,46602,1,0,0:0:0:0:
165,219,46836,1,0,0:0:0:0:
175,293,47070,1,2,0:0:0:0:
361,260,47305,2,0,P|323:254|278:276,1,69.7500026607514
356,190,48008,2,0,L|361:260,1,69.7500026607514
439,382,48711,6,0,L|443:312,1,69.7500026607514,2|0,0:0|0:0,0:0:0:0:
445,284,49649,1,0,0:0:0:0:
456,135,50117,1,10,0:0:0:0:
451,210,50586,1,0,0:0:0:0:
456,135,51055,2,0,P|454:106|458:85,1,34.8750013303757
341,30,51524,6,0,P|379:36|428:23,2,69.7500026607514,2|0|0,0:0|0:0|0:0,0:0:0:0:
284,88,52930,2,0,L|290:188,1,69.7500026607514,2|0,0:0|0:0,0:0:0:0:
291,185,53633,1,0,0:0:0:0:
113,267,54336,6,0,P|142:230|185:328,1,209.250007982254,2|0,0:0|0:0,0:0:0:0:
194,322,57149,6,0,L|272:316,2,69.7500026607514,2|0|0,0:0|0:0|0:0,0:0:0:0:
113,267,58320,1,0,0:0:0:0:
25,297,58555,2,0,P|60:289|114:375,1,139.500005321503,2|0,0:0|0:0,0:0:0:0:
117,360,59727,1,0,0:0:0:0:
113,267,59961,6,0,L|120:114,1,139.500005321503,2|0,0:0|0:0,0:0:0:0:
125,41,61133,1,0,0:0:0:0:
0,145,61367,1,10,0:0:0:0:
0,145,62774,6,0,P|82:187|122:163,1,139.5,4|2,3:2|0:3,0:0:0:0:
181,209,63711,2,0,L|191:289,1,46.5
116,168,64180,2,0,P|140:121|186:93,1,93,2|0,0:0|0:0,0:0:0:0:
172,97,64883,1,0,0:0:0:0:
370,49,65586,5,2,0:3:0:0:
233,38,66055,1,0,0:0:0:0:
222,175,66524,1,0,0:0:0:0:
359,186,66992,1,2,0:0:0:0:
297,113,67461,1,0,0:0:0:0:
359,186,67930,2,0,P|401:177|424:178,1,46.5
447,311,68399,6,0,P|403:300|340:309,1,93,4|0,1:2|0:0,0:0:0:0:
187,279,69102,1,0,0:0:0:0:
284,338,69336,2,0,P|251:342|231:336,1,46.5
213,143,69805,1,2,0:0:0:0:
285,257,70274,1,0,0:0:0:0:
213,143,70742,1,0,0:0:0:0:
93,202,71211,6,0,P|135:201|166:213,1,46.5,2|0,0:3|0:0,0:0:0:0:
28,256,71680,2,0,P|9:210|29:150,1,93
139,202,72617,1,10,0:0:0:0:
139,202,74024,6,0,P|158:156|138:96,1,93,4|2,3:2|0:3,0:0:0:0:
55,23,74727,1,0,0:0:0:0:
77,94,74961,2,0,L|75:152,1,46.5
205,25,75430,2,0,P|257:13|305:29,2,93,2|0|0,0:0|0:0|0:0,0:0:0:0:
205,25,76836,6,0,P|257:35|292:65,1,93,2|0,1:2|0:0,0:0:0:0:
262,179,77539,1,0,0:0:0:0:
262,179,77774,2,0,L|255:126,1,46.5,2|0,0:3|0:0,0:0:0:0:
384,96,78242,2,0,P|357:147|390:245,1,139.5,2|0,0:0|0:0,0:0:0:0:
372,224,79180,2,0,L|380:165,1,46.5
330,307,79649,6,0,P|385:302|428:330,1,93,4|2,3:2|0:3,0:0:0:0:
214,335,80352,2,0,P|159:330|116:358,1,93,2|0,0:0|0:0,0:0:0:0:
288,378,81055,2,0,L|292:164,1,186,2|0,0:0|0:0,0:0:0:0:
291,191,82461,6,0,P|306:147|295:80,1,93,2|0,1:2|0:0,0:0:0:0:
126,14,83164,2,0,P|122:60|137:104,1,93
43,103,83867,2,0,L|136:103,1,93,10|0,0:0|0:0,0:0:0:0:
212,144,84805,1,0,0:0:0:0:
212,144,85274,6,0,P|167:145|126:184,2,93,4|0|0,3:2|0:3|0:0,0:0:0:0:
174,288,86680,2,0,P|138:258|92:257,1,93
67,270,87383,1,2,0:0:0:0:
67,270,88086,6,0,P|50:222|7:190,2,93,0|0|0,1:0|0:0|0:0,0:0:0:0:
18,344,89492,2,0,P|35:296|78:264,1,93,2|0,0:0|0:0,0:0:0:0:
18,344,90195,2,0,P|71:340|117:365,1,93,2|0,0:3|0:0,0:0:0:0:
106,356,90899,6,0,B|200:340,1,69.7500026607514,4|0,3:2|0:0,0:0:0:0:
201,279,91836,2,0,B|146:269,2,34.8750013303757,0|0|2,0:0|0:0|0:0,0:0:0:0:
299,300,93242,2,0,B|265:306,2,34.8750013303757,0|0|2,0:0|0:0|0:0,0:0:0:0:
347,249,94649,6,0,B|393:256,1,34.8750013303757
416,248,95117,2,0,B|369:255,1,34.8750013303757,10|0,0:0|0:0,0:0:0:0:
444,314,95586,2,0,B|475:248|408:248|443:157,1,139.500005321503,0|4,0:0|3:2,0:0:0:0:
436,178,97461,6,0,L|441:124,2,34.8750013303757,0|0|2,0:0|0:0|0:0,0:0:0:0:
392,90,98867,2,0,L|387:36,2,34.8750013303757,0|0|2,0:0|0:0|0:0,0:0:0:0:
346,143,100274,2,0,L|342:177,1,34.8750013303757
346,212,100742,2,0,L|342:177,1,34.8750013303757,2|0,0:3|0:0,0:0:0:0:
339,73,101211,2,0,L|346:154,1,69.7500026607514,0|2,0:0|0:0,0:0:0:0:
345,142,102149,6,0,P|290:130|260:136,1,69.7500026607514,4|0,3:2|0:0,0:0:0:0:
214,163,103086,2,0,L|203:116,1,34.8750013303757
221,60,103555,2,0,L|199:151,1,69.7500026607514,2|0,0:0|0:0,0:0:0:0:
138,151,104492,2,0,L|97:141,1,34.8750013303757
35,159,104961,2,0,L|104:142,1,69.7500026607514,2|0,0:0|0:0,0:0:0:0:
107,212,105899,6,0,L|112:256,1,34.8750013303757
151,304,106367,2,0,L|154:269,1,34.8750013303757,10|0,0:0|0:0,0:0:0:0:
110,246,106836,2,0,B|173:231|173:282|250:258,1,139.500005321503,0|4,0:0|3:2,0:0:0:0:
245,259,108711,6,0,L|298:268,2,34.8750013303757,0|0|2,0:0|0:0|0:0,0:0:0:0:
245,259,110117,2,0,L|192:268,1,34.8750013303757
107,212,110586,5,2,0:0:0:0:
91,217,111055,1,0,0:0:0:0:
75,222,111524,1,0,0:0:0:0:
256,192,111992,1,10,0:0:0:0:
74,104,113399,6,0,P|103:100|133:105,1,46.5,2|0,0:0|0:0,0:0:0:0:
181,140,114102,2,0,L|216:141,1,23.25
120,101,114805,2,0,P|118:67|135:27,1,69.75,2|0,0:0|0:0,0:0:0:0:
130,33,116211,5,2,0:0:0:0:
114,219,116680,1,0,0:0:0:0:
112,199,117149,1,0,0:0:0:0:
110,179,117617,1,2,0:0:0:0:
110,179,119024,6,0,P|116:212|113:231,1,46.5,2|0,0:0|0:0,0:0:0:0:
73,285,119727,2,0,L|76:323,1,23.25
73,285,120430,2,0,L|148:293,1,69.75,2|0,0:0|0:0,0:0:0:0:
273,287,121836,5,2,0:0:0:0:
206,251,122305,1,0,0:0:0:0:
142,292,122774,1,0,0:0:0:0:
288,188,123242,5,2,0:0:0:0:
283,160,123711,1,0,0:0:0:0:
278,132,124180,1,0,0:0:0:0:
473,120,124649,6,0,P|433:118|408:126,1,46.5,2|0,0:0|0:0,0:0:0:0:
338,83,125352,2,0,L|364:86,1,23.25
338,83,126055,2,0,L|335:16,1,46.5,2|0,0:0|0:0,0:0:0:0:
262,29,126758,2,0,L|260:52,1,23.25
149,100,127461,5,0,0:0:0:0:
200,157,127930,1,0,0:0:0:0:
267,125,128399,1,0,0:0:0:0:
260,52,128867,1,2,0:0:0:0:
260,52,130274,6,0,P|252:91|255:116,1,46.5,2|0,0:0|0:0,0:0:0:0:
291,159,130977,2,0,L|293:190,1,23.25
264,336,131680,2,0,P|254:299|266:256,1,69.75,2|0,0:0|0:0,0:0:0:0:
259,268,133086,5,2,0:0:0:0:
337,298,133555,1,0,0:0:0:0:
376,313,134024,1,2,0:0:0:0:
395,320,134492,1,0,0:0:0:0:
451,49,135899,6,0,P|453:83|444:117,1,69.7500026607514,2|0,0:0|0:0,0:0:0:0:
431,141,136602,1,2,0:0:0:0:
325,107,136836,2,0,L|280:111,1,34.8750013303757,0|2,0:0|0:0,0:0:0:0:
326,208,137305,2,0,P|337:159|312:88,1,104.625003991127,2|0,0:0|0:0,0:0:0:0:
366,36,138242,2,0,L|358:1,1,34.8750013303757
217,99,138711,5,0,0:0:0:0:
290,110,139180,1,0,0:0:0:0:
290,110,139649,5,2,0:0:0:0:
217,99,139883,1,0,0:0:0:0:
171,157,140117,1,10,0:0:0:0:
171,157,141524,6,0,P|207:145|255:152,1,69.7500026607514,2|0,0:0|0:0,0:0:0:0:
287,199,142227,2,0,L|283:239,1,34.8750013303757
280,261,142695,1,2,0:0:0:0:
120,241,142930,2,0,P|156:253|204:246,1,69.7500026607514,2|0,0:0|0:0,0:0:0:0:
115,310,143633,2,0,L|120:231,1,69.7500026607514
54,122,144336,5,2,0:0:0:0:
57,143,144805,1,0,0:0:0:0:
60,164,145274,1,0,0:0:0:0:
115,310,145742,1,10,0:0:0:0:
115,310,147149,6,0,P|165:301|203:309,1,69.7500026607514,2|0,0:0|0:0,0:0:0:0:
208,315,147852,1,0,0:0:0:0:
357,276,148086,1,0,0:0:0:0:
277,267,148320,1,2,0:0:0:0:
332,59,148555,2,0,P|335:110|320:151,1,69.7500026607514
400,121,149258,2,0,L|298:131,1,69.7500026607514
197,172,149961,6,0,L|299:182,1,69.7500026607514,2|0,0:0|0:0,0:0:0:0:
291,183,150899,1,0,0:0:0:0:
157,242,151367,2,0,P|116:193|30:215,1,139.500005321503,10|0,0:0|0:0,0:0:0:0:
157,242,152774,6,0,L|144:325,2,69.7500026607514,2|0|0,0:0|0:0|0:0,0:0:0:0:
4,343,154180,2,0,P|42:339|80:357,1,69.7500026607514,2|0,0:0|0:0,0:0:0:0:
91,368,154883,1,0,0:0:0:0:
344,317,155586,6,0,P|293:337|305:233,1,209.250007982254,2|0,0:0|0:0,0:0:0:0:
299,233,158399,6,0,L|395:244,2,69.7500026607514,2|0|0,0:0|0:0|0:0,0:0:0:0:
238,183,159570,1,0,0:0:0:0:
342,13,159805,2,0,P|301:63|220:35,1,139.500005321503,2|0,0:0|0:0,0:0:0:0:
233,50,160977,1,0,0:0:0:0:
446,53,161211,6,0,B|408:116|466:128|420:213,1,139.500005321503,2|0,0:0|0:0,0:0:0:0:
368,240,162383,1,0,0:0:0:0:
506,368,162617,1,10,0:0:0:0:
506,368,164024,6,0,P|436:334|356:350,1,139.5,4|0,3:2|0:0,0:0:0:0:
261,302,164961,2,0,L|323:310,1,46.5
422,183,165430,2,0,P|352:217|315:212,1,93,2|0,0:0|0:0,0:0:0:0:
410,90,166133,2,0,L|423:196,1,93
272,146,166836,6,0,P|202:112|165:117,2,93,2|0|0,0:3|0:0|0:0,0:0:0:0:
264,6,168242,2,0,L|273:169,1,139.5,2|0,0:0|0:0,0:0:0:0:
271,145,169180,1,0,0:0:0:0:
304,75,169414,1,0,0:0:0:0:
97,118,169649,6,0,P|144:129|178:225,1,139.5,4|0,1:2|0:0,0:0:0:0:
97,118,170586,2,0,L|88:49,1,46.5
29,223,171055,1,2,0:0:0:0:
182,206,171524,1,0,0:0:0:0:
199,359,171992,1,0,0:0:0:0:
114,291,172461,6,0,P|147:291|167:296,1,46.5,2|0,0:3|0:0,0:0:0:0:
303,255,172930,2,0,P|249:254|176:197,1,139.5
332,164,173867,1,10,0:0:0:0:
332,164,175274,6,0,L|341:259,1,93,4|2,3:2|0:3,0:0:0:0:
446,378,175977,2,0,L|450:331,1,46.5
452,294,176445,1,0,0:0:0:0:
251,266,176680,2,0,L|255:312,1,46.5,2|0,0:0|0:0,0:0:0:0:
340,256,177149,2,0,P|291:272|230:255,1,93
130,102,178086,6,0,P|175:96|219:111,1,93,2|0,1:2|0:0,0:0:0:0:
258,179,178789,1,0,0:0:0:0:
130,102,179024,2,0,L|124:42,1,46.5,2|0,0:3|0:0,0:0:0:0:
0,146,179492,2,0,P|66:154|85:218,1,139.5,2|0,0:0|0:0,0:0:0:0:
56,294,180430,1,0,0:0:0:0:
56,294,180664,1,0,0:0:0:0:
183,182,180899,6,0,P|232:191|278:175,1,93,4|2,3:2|0:3,0:0:0:0:
464,299,181602,2,0,P|415:308|369:292,1,93,2|0,0:0|0:0,0:0:0:0:
273,179,182305,2,0,L|287:372,1,186,2|0,0:0|0:0,0:0:0:0:
287,366,183711,6,0,P|304:310|300:267,1,93,2|0,1:2|0:0,0:0:0:0:
224,162,184414,2,0,P|207:106|211:63,1,93
361,157,185117,2,0,B|295:132|290:191|193:151,1,139.5,10|0,0:0|0:0,0:0:0:0:
204,174,186055,1,0,0:0:0:0:
204,174,186524,5,4,3:2:0:0:
22,278,186992,1,0,0:3:0:0:
165,317,187461,1,0,0:0:0:0:
61,135,187930,2,0,P|51:76|75:30,1,93
138,91,188633,2,0,P|91:129|40:131,1,93,2|0,0:0|0:0,0:0:0:0:
60,134,189336,6,0,P|48:183|61:227,2,93,0|0|0,1:0|0:0|0:0,0:0:0:0:
230,13,190742,2,0,P|242:61|229:105,1,93,2|0,0:0|0:0,0:0:0:0:
229,191,191445,2,0,P|217:146|230:101,1,93,2|0,0:3|0:0,0:0:0:0:
474,148,192149,6,0,L|368:153,1,93,4|0,3:2|0:0,0:0:0:0:
380,152,193086,1,0,0:0:0:0:
474,148,193320,1,0,0:0:0:0:
425,311,193555,2,0,P|399:256|306:251,1,139.5,2|0,0:0|0:0,0:0:0:0:
326,241,194492,1,0,0:0:0:0:
326,265,194727,1,0,0:0:0:0:
133,151,194961,6,0,B|198:135|198:185|288:160,1,139.5,2|0,0:0|0:0,0:0:0:0:
269,164,195899,1,0,0:0:0:0:
198,192,196133,1,0,0:0:0:0:
207,37,196367,1,10,0:0:0:0:
266,85,196602,1,0,0:0:0:0:
335,51,196836,2,0,P|285:93|272:181,1,139.5
428,150,197774,6,0,P|408:110|421:47,1,93,4|0,3:2|0:0,0:0:0:0:
412,62,198711,1,0,0:0:0:0:
493,94,198945,1,0,0:0:0:0:
412,62,199180,2,0,B|348:56|346:96|271:74,1,139.5,2|0,0:0|0:0,0:0:0:0:
275,75,200117,1,0,0:0:0:0:
279,100,200352,1,0,0:0:0:0:
121,131,200586,6,0,P|166:104|171:18,1,139.5,2|0,0:0|0:0,0:0:0:0:
173,22,201524,2,0,L|169:95,1,46.5
140,270,201992,1,2,0:3:0:0:
121,131,202227,1,0,0:0:0:0:
0,188,202461,2,0,P|64:190|93:210,1,93,0|10,0:0|0:0,0:0:0:0:
87,204,203399,6,0,L|176:201,1,69.7500026607514,4|0,3:2|0:0,0:0:0:0:
254,172,204336,2,0,L|220:171,2,34.8750013303757,0|0|2,0:0|0:0|0:0,0:0:0:0:
342,215,205742,2,0,L|308:217,2,34.8750013303757,0|0|2,0:0|0:0|0:0,0:0:0:0:
347,287,207149,6,0,L|312:288,1,34.8750013303757
277,287,207617,2,0,L|311:288,1,34.8750013303757,10|0,0:0|0:0,0:0:0:0:
278,369,208086,2,0,P|248:311|162:316,1,139.500005321503,0|4,0:0|3:2,0:0:0:0:
179,304,209961,6,0,L|169:260,2,23.25,0|0|2,0:0|0:0|0:0,0:0:0:0:
110,116,211367,2,0,L|100:160,2,23.25,0|0|2,0:0|0:0|0:0,0:0:0:0:
18,209,212305,2,0,L|83:217,1,46.5
256,192,213184,6,0,L|278:189,2,17.4375006651879,0|10|0,0:0|0:0|0:0,0:0:0:0:
