osu file format v5

[General]
AudioFilename: 15 One Night Carnival.mp3
AudioLeadIn: 0
PreviewTime: 44749
Countdown: 1
SampleSet: Normal
StackLeniency: 0.4
Mode: 0
LetterboxInBreaks: 1
SkinPreference:ouendan1
EditorBookmarks: 16073,30191,43647,44308,79602,90411,91955,136073,136514,143352,144897,169602

[Metadata]
Title:One Night Carnival
Artist:Kei Imai
Creator:MetalMario201
Version:Kakan ni Ouen
Source:Osu! Tatakae! Ouendan!
Tags:ouendan authentic kishidan

[Difficulty]
HPDrainRate:4
CircleSize:4
OverallDifficulty:3
SliderMultiplier:1.44
SliderTickRate:2

[Events]
//Background and Video events
0,0,"backdrop.png"
//Break Periods
2,30170,43530
2,79582,90405
2,136494,143346
//Storyboard Layer 0 (Background)
//Storyboard Layer 1 (Failing)
//Storyboard Layer 2 (Passing)
//Storyboard Layer 3 (Foreground)
//Storyboard Sound Samples
//Background Colour Transformations
3,100,163,162,255

[TimingPoints]
1955.85443023542,441.176470588235,4,1,2,80,1,0
21147,-100,4,1,1,80,0,0
44308,-100,4,2,1,80,0,0
46294,-100,4,1,1,80,0,0
48058,-100,4,2,1,80,0,0
50485,-100,4,1,1,80,0,0
51808,-100,4,2,1,80,0,0
52911,-100,4,1,1,80,0,0
62397,-100,4,2,1,80,0,0
63499,-100,4,1,2,80,0,0
65705,-100,4,2,1,80,0,0
66808,-100,4,1,1,80,0,0
78720,-100,4,1,2,80,0,0
90191,-100,4,1,1,80,0,0
106073,-100,4,1,2,80,0,0
112470,-100,4,1,1,80,0,0
147102,-100,4,2,1,80,0,0
148647,-100,4,1,1,80,0,0
150411,-100,4,2,1,80,0,0
151514,-100,4,1,1,80,0,0
163426,-100,4,1,2,80,0,0

[Colours]
Combo1 : 240,32,0
Combo2 : 240,160,0
Combo3 : 0,232,24
Combo4 : 64,96,240

[HitObjects]
256,40,16294,5,2
256,40,16514,1,2
256,184,16955,1,2
256,290,17286,1,2
131,326,17838,5,0
131,184,18279,1,0
24,254,18720,1,0
24,112,19161,1,4
256,40,19823,5,2
256,40,20043,1,2
256,184,20484,1,2
256,290,20815,1,2
381,326,21367,5,0
381,184,21808,1,0
488,254,22249,1,8
488,112,22690,1,4
363,40,23132,6,2,B|208:-8|68:103|69:271,1,432,10|6
167,344,24897,2,2,B|332:385|459:285|459:105,1,432,10|6
399,40,26661,2,2,B|104:40,2,288,10|6|6
180,330,29308,5,4
343,333,29749,1,4
221,281,44970,5,0
291,281,45191,1,8
256,218,45411,1,0
256,148,45632,1,12
256,22,46073,5,0
381,40,46514,1,0
453,58,46735,2,2,B|580:273|368:351,1,360,10|6
291,281,48499,5,0
221,281,48720,1,8
256,218,48941,1,0
256,148,49161,1,12
256,22,49602,5,8
113,22,50044,1,8
112,168,50485,1,0
113,308,50926,1,0
183,326,51147,2,2,B|334:326,1,144,10|6
327,184,52029,5,8
256,184,52249,1,0
185,184,52470,1,12
59,58,53132,5,10
256,22,53794,1,10
256,94,54014,1,14
453,58,54897,5,10
256,22,55558,1,10
256,94,55779,1,14
291,200,56220,5,10
221,200,56441,1,14
77,218,56882,1,10
59,290,57102,2,2,B|208:376|304:376|468:282,1,432,10|6
309,236,58720,5,6
203,236,59014,1,6
256,166,59308,1,6
203,94,59602,1,6
309,94,59897,1,6
256,22,60191,5,0
131,40,60632,1,0
59,58,60852,2,2,B|-68:273|144:351,1,360,10|6
221,281,62617,5,0
291,281,62838,1,8
256,218,63058,1,0
256,148,63279,1,12
256,22,63720,5,8
399,22,64161,1,0
399,166,64602,1,10
399,308,65044,1,8
327,326,65264,1,8
185,184,66147,5,8
256,184,66367,1,0
327,184,66588,1,12
488,58,67249,5,14
327,22,67911,1,10
327,94,68132,1,14
185,94,68573,1,10
185,22,68794,1,4
77,58,69235,1,4
203,184,70117,5,4
309,184,70448,1,4
471,362,70779,5,10
327,362,71220,1,10
185,362,71661,1,10
41,362,72102,1,10
41,290,72323,1,4
256,290,72985,1,4
256,130,73647,5,14
32,168,74308,2,2,B|105:-35|407:-35|480:172,1,576,10|6
381,218,76514,5,4
256,184,76956,1,4
131,218,77397,1,4
167,317,77838,2,2,B|239:371|273:371|372:308,1,216,10|6
256,58,78941,5,2
256,58,79161,1,4
185,40,91955,5,10
327,40,92397,1,10
327,184,92838,1,10
185,184,93279,1,10
118,326,93720,2,2,B|230:375|282:375|399:321,1,288,10|6
256,254,94823,5,0
256,254,95044,1,4
327,40,95485,5,10
185,40,95926,1,10
185,184,96367,1,10
327,184,96808,1,10
394,326,97249,2,2,B|282:375|230:375|113:321,1,288,10|6
256,254,98352,5,0
256,254,98573,1,4
185,40,99014,5,10
327,40,99455,1,10
327,184,99897,1,10
185,184,100338,1,10
118,326,100779,2,2,B|230:375|282:375|399:321,1,288,10|6
256,254,101882,5,0
256,254,102102,1,4
327,40,102544,5,10
185,40,102985,1,10
185,184,103426,1,10
327,184,103867,1,10
475,254,104308,2,2,B|381:396|131:396|33:243,1,504,10|6
256,40,106294,5,2
256,40,106514,1,2
256,184,106955,1,2
256,290,107286,1,2
131,326,107838,5,0
131,184,108279,1,0
24,254,108720,1,0
24,112,109161,1,4
256,40,109823,5,2
256,40,110043,1,2
256,184,110484,1,2
256,290,110815,1,2
381,326,111367,5,0
381,184,111808,1,0
488,254,112249,1,4
488,112,112690,1,4
363,40,113132,6,2,B|208:-8|68:103|69:271,1,432,10|6
167,344,114897,2,2,B|332:385|459:285|459:105,1,432,10|6
399,40,116661,2,2,B|104:40,2,288,10|6|6
327,184,119308,5,4
185,184,119749,1,4
113,344,120191,5,10
256,344,120632,1,10
372,245,121073,1,6
399,344,121404,1,6
332,40,121955,2,2,B|180:40,1,144,10|6
256,184,122838,5,4
256,184,123279,1,4
399,344,123720,5,10
256,344,124161,1,10
140,245,124602,1,6
113,344,124933,1,6
180,40,125484,2,2,B|332:40,1,144,10|6
256,184,126367,5,4
256,184,126808,1,2
488,76,127249,5,10
488,218,127691,1,10
488,362,128132,1,6
390,362,128463,1,6
332,184,129014,2,2,B|180:184,1,144,10|6
256,362,129897,5,4
256,362,130338,1,4
24,76,130779,5,10
24,218,131221,1,10
24,362,131662,1,6
122,362,131993,1,6
111,259,132544,6,2,B|73:167|93:29|188:-21|357:-41|560:-28|640:176|576:433|263:426|113:361|108:121|228:78|359:171,1,1152,10|6
256,22,144897,5,0
131,40,145338,1,0
59,58,145558,2,2,B|-68:273|144:351,1,360,10|6
221,281,147323,5,0
291,281,147544,1,8
256,218,147764,1,0
256,148,147985,1,12
256,22,148426,5,0
399,22,148867,1,0
399,184,149308,2,2,B|403:335|285:354,1,216,10|6
167,353,150411,1,0
256,236,150852,5,8
256,166,151073,1,0
256,94,151294,1,8
488,58,151955,5,10
327,22,152617,1,10
327,94,152838,1,14
185,94,153279,1,10
185,22,153499,1,4
77,58,153941,1,4
203,184,154823,5,4
309,184,155154,1,4
471,362,155485,5,10
327,362,155926,1,10
185,362,156367,1,10
41,362,156808,1,10
41,290,157029,1,4
256,290,157691,1,4
256,130,158352,5,14
32,168,159014,2,2,B|105:-35|407:-35|480:172,1,576,10|6
381,218,161219,5,4
256,184,161661,1,4
131,218,162102,1,4
167,317,162543,2,2,B|239:371|273:371|372:308,1,216,10|6
256,58,163646,5,2
256,58,163866,1,4
256,192,164860,12,4,169602
