osu file format v5

[General]
AudioFilename: 15 One Night Carnival.mp3
AudioLeadIn: 0
PreviewTime: 44749
Countdown: 1
SampleSet: Soft
StackLeniency: 0.4
Mode: 0
LetterboxInBreaks: 1
SkinPreference:ouendan1
EditorBookmarks: 16073,30191,43426,44308,80044,90191,91955,136073,136514,143132,144897,169602

[Metadata]
Title:One Night Carnival
Artist:Kei Imai
Creator:MetalMario201
Version:Gekiretsu ni Ouen
Source:Osu! Tatakae! Ouendan!
Tags:ouendan authentic kishidan

[Difficulty]
HPDrainRate:5
CircleSize:4
OverallDifficulty:5
SliderMultiplier:2.1
SliderTickRate:2

[Events]
//Background and Video events
0,0,"backdrop.png"
//Break Periods
2,30170,43439
2,80023,90204
2,136494,143145
//Storyboard Layer 0 (Background)
//Storyboard Layer 1 (Failing)
//Storyboard Layer 2 (Passing)
//Storyboard Layer 3 (Foreground)
//Storyboard Sound Samples
//Background Colour Transformations
3,100,163,162,255

[TimingPoints]
1955.85443023542,441.176470588235,4,2,1,80,1,0
21257,-100,4,1,1,80,0,0
22911,-100,4,2,1,80,0,0
28867,-100,4,1,1,80,0,0
42544,-100,4,2,2,80,0,0
46294,-100,4,1,1,80,0,0
48058,-100,4,2,2,80,0,0
52691,-100,4,1,1,80,0,0
53683,-100,4,2,1,80,0,0
54455,-100,4,1,1,80,0,0
55448,-100,4,2,1,80,0,0
55999,-100,4,2,2,80,0,0
56661,-100,4,1,1,80,0,0
62397,-100,4,2,2,80,0,0
66808,-100,4,1,1,80,0,0
68022,-100,4,2,1,80,0,0
68352,-100,4,2,2,80,0,0
73426,-100,4,1,1,80,0,0
90191,-100,4,2,1,80,0,0
93499,-100,4,1,1,80,0,0
94492,-100,4,2,1,80,0,0
97029,-100,4,1,1,80,0,0
98022,-100,4,2,1,80,0,0
100558,-100,4,1,1,80,0,0
101551,-100,4,2,1,80,0,0
104088,-100,4,1,1,80,0,0
105080,-100,4,2,1,80,0,0
105852,-100,4,2,2,80,0,0
110926,-100,4,1,1,80,0,0
111477,-100,4,2,1,80,0,0
111698,-100,4,1,1,80,0,0
111919,-100,4,2,1,80,0,0
118867,-100,4,1,1,80,0,0
119749,-100,4,2,2,80,0,0
131882,-100,4,1,1,80,0,0
143132,-100,4,2,2,80,0,0
145448,-100,4,1,1,80,0,0
147102,-100,4,2,2,80,0,0
151514,-100,4,1,1,80,0,0
152727,-100,4,2,1,80,0,0
158132,-100,4,1,1,80,0,0
160338,-100,4,2,1,80,0,0
162323,-100,4,2,2,80,0,0

[Colours]
Combo1 : 240,32,0
Combo2 : 240,160,0
Combo3 : 0,232,24
Combo4 : 64,96,240

[HitObjects]
256,22,16294,5,8
327,22,16514,1,4
256,112,16955,1,8
327,112,17176,1,8
327,112,17286,1,4
435,112,17617,5,8
363,184,17838,1,8
435,254,18058,1,8
363,326,18279,1,12
256,326,18610,1,4
256,22,19823,5,8
185,22,20044,1,4
256,112,20485,1,8
256,112,20595,1,8
185,112,20816,1,4
77,112,21147,5,8
149,184,21367,1,10
77,254,21588,1,2
149,326,21808,1,14
221,326,22029,1,2
256,192,22249,5,10
256,192,22691,1,4
95,22,23352,5,14
41,112,23683,1,14
149,112,24014,2,0,B|236:6|271:122|307:211|428:97,1,315,8|12
417,236,25117,5,14
471,326,25448,1,14
363,326,25779,2,0,B|267:405|223:320|168:215|83:333,1,315,8|12
95,22,26882,5,14
41,112,27213,1,14
149,112,27544,2,0,B|236:6|271:122|307:211|428:97,1,315,8|12
185,218,29308,5,10
327,218,29749,1,4
86,148,44970,5,2
149,85,45191,1,10
221,40,45411,1,0
291,40,45632,1,8
363,85,45852,1,0
426,148,46073,1,4
256,184,46514,1,8
113,218,46735,2,2,B|212:290|300:290|408:213,1,315,10|6
256,348,47838,1,4
95,130,48500,5,10
149,76,48721,1,10
221,40,48941,1,0
291,40,49162,1,4
363,76,49382,1,2
417,130,49603,1,4
256,184,50044,1,4
363,232,50485,1,4
291,254,50706,1,10
221,254,50926,1,10
149,232,51147,1,12
185,326,52029,5,8
256,348,52249,1,4
327,326,52470,1,8
24,344,53132,6,2,B|9:219|81:139,1,210,10|6
122,85,53794,1,8
185,40,54014,1,12
488,344,54897,6,2,B|503:219|431:139,1,210,10|6
390,85,55559,1,8
327,40,55779,1,10
221,218,56220,5,10
291,218,56441,1,12
256,326,56882,1,4
329,308,57102,2,2,B|426:254|426:115|327:36|185:36|86:115|86:254|189:317,1,630,10|4
453,130,58720,5,4
363,58,59014,1,4
256,22,59308,1,4
149,58,59602,1,4
59,130,59897,1,4
256,94,60191,5,4
256,218,60632,1,0
113,236,60852,2,2,B|212:308|300:308|408:231,1,315,10|6
256,362,61955,1,4
417,130,62617,5,4
363,76,62838,1,10
291,40,63058,1,8
221,40,63279,1,4
149,76,63499,1,10
95,130,63720,1,10
256,184,64161,1,4
149,232,64602,1,10
221,254,64823,1,2
291,254,65043,1,2
363,232,65264,1,4
327,326,66146,5,8
256,348,66366,1,4
185,326,66587,1,8
399,112,67249,6,2,B|300:53|212:53|93:113,1,315,10|6
185,184,68132,1,8
327,184,68573,1,10
327,254,68794,1,4
185,254,69235,1,4
256,76,70117,5,4
256,184,70448,1,4
185,130,70779,5,4
327,130,71220,1,4
354,263,71661,1,8
300,326,71882,1,2
212,326,72102,1,10
158,263,72323,1,4
256,184,72764,1,8
256,254,72985,1,4
113,76,73647,6,2,B|228:-31|241:86|270:175|390:64,1,315,10|6
381,184,74639,1,4
256,184,74970,1,4
256,192,76073,12,4,79602
113,184,91955,5,10
185,112,92397,1,10
256,40,92838,1,10
327,112,93279,1,10
399,184,93720,2,2,B|282:272|230:272|116:181,1,315,10|6
185,326,94602,1,8
256,326,94823,1,8
327,326,95044,1,4
399,184,95485,5,10
327,112,95927,1,10
256,40,96368,1,10
185,112,96809,1,10
113,184,97249,2,2,B|230:272|282:272|394:179,1,315,10|6
327,326,98132,1,8
256,326,98353,1,8
185,326,98574,1,4
113,184,99014,5,10
185,112,99456,1,10
256,40,99897,1,10
327,112,100338,1,10
399,184,100779,2,2,B|282:272|230:272|116:181,1,315,10|6
185,326,101661,1,8
256,326,101882,1,8
327,326,102103,1,4
399,184,102544,5,10
327,112,102986,1,10
256,40,103427,1,10
185,112,103868,1,10
113,184,104308,2,2,B|230:272|282:272|394:179,1,315,10|6
363,326,105191,1,8
256,348,105522,1,8
149,326,105852,1,4
149,63,106294,5,10
221,40,106514,1,10
291,40,106735,1,10
363,63,106955,1,12
256,112,107286,1,4
256,218,107617,5,10
149,254,107838,1,10
221,290,108058,1,10
291,290,108279,1,4
363,148,108610,1,12
363,63,109823,5,10
291,40,110043,1,10
221,40,110264,1,10
149,63,110484,1,4
256,112,110815,1,4
256,218,111147,5,4
149,268,111367,1,10
221,290,111588,1,8
291,290,111808,1,10
363,268,112029,1,8
256,354,112249,1,6
256,354,112691,1,4
417,22,113352,5,14
471,112,113683,1,14
363,112,114014,2,8,B|267:192|221:108|173:3|83:119,1,315,8|12
95,236,115117,5,14
41,326,115448,1,14
149,326,115779,2,8,B|236:217|271:336|308:423|426:315,1,315,8|12
417,22,116882,5,14
471,112,117213,1,14
363,112,117544,2,8,B|267:192|221:108|173:3|83:119,1,315,8|12
185,205,119308,5,10
327,205,119749,1,4
185,40,120191,5,10
327,40,120632,1,10
256,112,120852,1,10
203,184,121073,1,4
309,184,121404,1,4
185,254,121955,5,10
256,277,122176,1,10
327,254,122397,1,4
256,184,122727,1,12
327,40,123720,5,10
185,40,124161,1,2
256,112,124381,1,2
309,184,124602,1,10
203,184,124933,1,4
399,252,125485,5,10
327,277,125705,1,4
185,277,126147,1,8
113,252,126367,1,4
185,40,127249,5,10
327,40,127690,1,10
256,112,127910,1,10
203,184,128131,1,4
309,184,128462,1,4
185,254,129013,5,10
256,277,129234,1,8
327,254,129455,1,4
256,184,129785,1,12
327,40,130779,5,10
185,40,131220,1,2
256,112,131440,1,0
309,184,131661,1,4
203,184,131992,1,4
256,254,132323,5,2
435,254,132544,2,6,B|283:369|204:369|56:242,4,420,10|6|6|6|4
256,94,144897,5,4
256,218,145338,1,2
113,236,145558,2,2,B|212:308|300:308|408:231,1,315,10|6
256,362,146661,1,4
417,130,147323,5,4
363,76,147544,1,10
291,40,147764,1,0
221,40,147985,1,10
149,76,148205,1,2
95,130,148426,1,12
256,184,148867,1,4
149,232,149308,1,10
221,254,149529,1,2
291,254,149749,1,2
363,232,149970,1,4
256,112,150411,1,4
327,326,150852,5,8
256,348,151073,1,4
185,326,151294,1,8
399,76,151955,6,2,B|300:17|212:17|93:77,1,315,10|0
185,148,152838,1,4
327,148,153279,1,8
327,218,153500,1,4
185,218,153941,1,4
256,76,154823,5,4
256,184,155154,1,4
185,130,155485,5,6
327,130,155926,1,6
354,263,156367,5,10
300,326,156588,1,0
212,326,156808,1,10
158,263,157029,1,4
256,184,157470,1,8
256,254,157691,1,12
113,76,158352,6,2,B|228:-31|241:86|270:175|390:64,1,315,10|6
381,184,159345,1,4
256,184,159676,1,4
363,22,160779,5,6
149,22,161220,1,6
256,184,161661,5,4
149,344,162102,1,4
363,344,162544,1,4
256,254,162985,1,8
256,254,163205,1,4
256,94,163647,5,10
256,94,163867,1,4
256,192,164860,12,4,169602
