osu file format v6

[General]
AudioFilename: 09 - Keane - This Is The Last Time.mp3
AudioLeadIn: 0
PreviewTime: -1
Countdown: 1
SampleSet: Soft
StackLeniency: 0.7
Mode: 0
LetterboxInBreaks: 1

[Editor]
Bookmarks: 26661
DistanceSpacing: 0.800000011920929
BeatDivisor: 2
GridSize: 32

[Metadata]
Title:This Is The Last Time
Artist:Keane
Creator:ShokuMasterLord
Version:Insane
Source:
Tags:

[Difficulty]
HPDrainRate:7
CircleSize:6
OverallDifficulty:7
SliderMultiplier:1
SliderTickRate:1

[Events]
//Background and Video events
Video,-961,"keane_-_this_is_the_last_time_bgvid.avi"
0,0,"hnf.jpg"
//Break Periods
2,30496,41927
2,73555,86580
2,103172,116198
2,146231,158801
//Storyboard Layer 0 (Background)
//Storyboard Layer 1 (Fail)
//Storyboard Layer 2 (Pass)
//Storyboard Layer 3 (Foreground)
//Storyboard Sound Samples
//Background Colour Transformations
3,100,163,162,255

[TimingPoints]
15706.0077369775,455.650060753341,4,2,0,100,1,0
163356,455.650060753341,4,2,0,100,1,1

[HitObjects]
192,64,15716,1,0
256,64,15943,1,0
256,64,16171,1,0
256,128,16399,1,0
256,192,16627,1,0
256,192,16855,1,0
320,192,17082,1,0
384,224,17310,1,0
352,288,17538,5,0
288,288,17766,1,0
288,288,17994,1,0
224,288,18222,1,0
160,288,18449,2,0,B|160:256,2,25
160,263,18905,2,4,B|128:256,4,25
96,192,19579,5,0
96,256,19806,1,0
160,256,20034,1,0
160,320,20272,1,0
224,288,20500,1,0
288,256,20728,1,0
288,320,20955,1,0
352,288,21183,1,0
384,256,21411,2,0,B|384:224,2,25
384,192,21857,2,0,B|352:192,2,25
352,128,22322,1,0
320,128,22550,1,0
288,128,22778,1,2
224,128,23006,5,0
160,96,23234,1,0
224,64,23462,1,0
160,32,23689,1,0
224,0,23917,1,0
288,32,24145,1,0
288,96,24373,1,0
288,160,24601,1,2
352,192,24829,1,0
352,128,25056,1,0
416,96,25284,1,0
416,160,25512,1,0
480,128,25740,1,0
480,192,25968,1,0
416,224,26195,1,2
416,224,26423,1,2
416,288,26651,6,0,B|352:352|320:320,1,100
320,288,27335,2,0,B|320:224|256:192,1,100
224,192,28018,1,0
160,192,28246,1,0
96,160,28474,2,0,B|128:96|192:96,1,100
256,96,29157,2,0,B|320:128|352:96,1,100
416,96,29841,1,0
480,96,30068,1,0
480,160,30296,1,4
128,352,42827,5,0
160,320,43054,1,0
192,352,43282,1,2
224,320,43510,1,2
256,352,43738,1,2
288,320,43966,1,0
320,352,44194,1,4
352,320,44422,1,4
384,352,44649,1,4
448,352,44877,6,0,B|448:288|384:288,1,100
352,288,45561,2,0,B|288:256|288:192,1,100
288,160,46244,1,2
256,96,46472,1,2
256,32,46700,2,0,B|192:32|160:96,1,100
160,128,47383,2,0,B|160:192|96:224,1,100
64,224,48067,1,2
0,224,48294,1,2
0,288,48522,1,0
64,320,48750,1,0
64,256,48978,1,0
128,288,49206,1,0
128,224,49434,1,0
192,256,49661,1,0
192,192,49889,1,4
256,224,50117,1,4
320,231,50345,6,2,B|320:256,2,25
352,192,50801,2,2,B|384:192,2,25
320,160,51256,2,2,B|320:128,2,25
288,192,51712,2,4,B|256:192,3,25
263,192,52168,6,0,B|256:128|192:96,1,100
128,96,52851,2,0,B|64:128|64:192,1,100
64,224,53534,1,2
64,288,53762,1,2
64,352,53990,2,0,B|128:352|160:288,1,100
192,288,54674,2,0,B|256:288|288:352,1,100
320,352,55357,1,2
384,352,55585,1,2
448,320,55813,2,0,B|448:256|384:224,1,100
352,224,56496,2,0,B|288:192|288:128,1,100
288,96,57180,1,0
224,96,57407,1,2
128,160,57635,6,2,B|128:128,2,25
160,192,58091,2,2,B|192:192,2,25
128,224,58547,2,2,B|128:256,2,25
96,192,59002,2,4,B|64:192,3,25
64,224,59458,6,0,B|64:160|128:128,1,100
160,128,60141,2,0,B|224:128|256:64,1,100
288,64,60825,1,2
352,32,61053,1,2
416,64,61281,2,0,B|480:96|480:160,1,100
480,192,61964,2,0,B|480:256|416:288,1,100
384,288,62647,1,2
320,288,62875,1,2
256,320,63093,5,0
256,256,63331,1,0
192,288,63559,1,0
192,224,63787,1,0
128,256,64014,1,0
128,192,64242,1,0
64,224,64470,1,0
64,160,64698,1,0
64,96,64926,1,2
192,96,66055,5,0
192,160,66292,1,2
256,128,66520,1,2
256,192,66738,1,0
320,160,66976,1,0
320,96,67204,1,0
384,128,67432,1,0
384,64,67660,1,0
448,96,67887,1,0
448,32,68115,1,0
512,64,68343,1,0
512,0,68561,5,0
448,0,68799,1,0
384,0,69027,1,0
320,0,69254,1,0
256,64,69710,1,0
224,0,69938,1,0
192,64,70166,1,0
128,96,70394,5,2
384,160,71077,1,2
128,224,71760,1,2
384,288,72216,1,2
384,288,72444,1,2
384,288,72672,1,2
384,288,72900,1,2
384,288,73128,1,2
384,288,73355,1,2
128,96,87480,5,4
384,96,88164,1,4
384,192,88610,5,0
352,256,88847,1,0
320,192,89075,1,0
288,256,89303,1,0
256,192,89531,1,0
224,256,89759,1,0
192,192,89986,1,2
160,256,90214,1,2
128,192,90442,2,0,B|64:192|32:256,1,100
32,288,91126,2,2,B|64:352|128:352,1,100
160,352,91809,1,2
224,352,92037,1,2
288,320,92265,5,0
320,288,92493,1,0
352,256,92720,1,0
384,224,92948,1,0
320,224,93176,1,0
352,192,93404,1,0
384,160,93632,1,0
416,128,93859,1,0
448,128,94087,1,2
448,224,94543,1,2
448,224,94771,1,2
448,288,95226,1,4
480,352,95454,1,4
416,352,95681,1,4
384,288,95910,5,0
320,320,96138,1,0
320,256,96366,1,0
384,224,96593,1,0
320,192,96821,1,0
384,160,97049,1,0
320,128,97277,1,2
384,96,97505,1,2
320,64,97733,2,0,B|288:0|224:0,1,100
192,0,98416,2,0,B|128:0|96:64,1,100
160,96,99099,1,2
96,128,99327,1,2
160,160,99545,5,0
96,192,99783,1,0
160,224,100011,1,0
224,192,100238,1,0
224,256,100466,1,0
288,224,100694,1,0
288,288,100922,1,0
352,256,101150,1,2
352,320,101378,1,2
416,288,101833,5,2
416,224,102061,1,2
480,256,102517,1,2
480,192,102745,1,2
416,160,102972,1,2
64,224,117098,5,0
96,160,117325,1,0
128,224,117553,1,0
160,160,117781,2,0,B|160:96|224:64,1,100
256,64,118465,2,0,B|320:64|352:96,1,100
352,160,119148,1,2
352,224,119376,1,2
352,288,119604,2,0,B|384:352|448:352,1,100
480,352,120287,2,0,B|512:288|512:256,1,100
512,192,120971,1,2
512,128,121198,1,2
416,160,121426,2,0,B|416:96|384:64|320:32,2,150
480,192,123011,5,0
416,288,123477,1,0
384,224,123705,1,0
352,288,123932,1,0
320,224,124160,1,0
288,288,124388,1,0
256,224,124616,1,0
288,160,124844,1,0
352,160,125072,6,0,B|416:160|448:96,1,100
480,64,125755,2,0,B|448:0|384:0,1,100
352,0,126438,1,2
288,0,126666,1,2
224,0,126894,2,0,B|160:0|128:64,1,100
128,96,127578,2,0,B|128:160|192:192,1,100
224,192,128261,1,2
288,192,128489,1,2
352,192,128717,2,0,B|416:192|448:256,1,100
448,288,129400,2,0,B|448:352|384:384,1,100
352,384,130084,1,2
288,384,130311,1,2
224,384,130529,5,2
224,320,130767,1,0
160,352,130995,1,0
160,288,131223,1,0
96,320,131451,1,0
96,256,131678,1,0
32,288,131906,1,0
32,224,132134,1,0
96,192,132362,6,0,B|32:160|32:96,1,100
32,96,133045,2,0,B|64:32|128:32,1,100
160,32,133729,1,2
224,32,133957,1,2
288,32,134185,2,0,B|352:32|384:96,1,100
384,128,134868,2,0,B|352:192|288:192,1,100
256,192,135551,1,2
192,192,135779,1,2
128,192,135997,5,2
128,128,136235,1,0
64,160,136463,1,0
64,96,136691,1,0
0,128,136918,1,0
0,64,137146,1,0
64,32,137374,1,0
128,64,137602,1,0
128,0,137830,1,0
192,32,138058,1,0
192,96,138285,1,0
256,64,138513,1,0
256,128,138741,1,0
256,128,139197,1,0
320,96,139652,6,0,B|384:96|416:160,1,100
416,192,140336,2,0,B|416:256|352:288,1,100
320,288,141019,1,0
256,288,141247,1,0
192,288,141475,2,0,B|128:288|96:224,1,100
96,192,142158,2,0,B|96:128|160:96,1,100
192,96,142832,1,2
384,96,143298,5,0
128,160,143981,1,0
384,224,144664,1,0
128,288,145120,1,0
128,288,145348,1,0
128,288,145576,1,0
128,288,145804,1,0
128,288,146031,1,0
160,64,159701,5,0
224,80,159929,1,0
288,96,160157,1,0
352,112,160384,1,0
352,160,160612,5,2
288,176,160840,1,2
224,192,161068,1,2
160,208,161296,1,2
160,256,161524,5,4
224,256,161751,1,4
288,256,161979,1,4
352,256,162207,1,4
352,320,162435,1,6
288,320,162663,1,6
224,320,162890,1,6
160,320,163118,1,6
160,320,163356,6,0,B|96:288|96:224,1,100
96,192,164040,2,0,B|128:128|192:128,1,100
224,128,164723,1,2
288,128,164951,1,2
352,128,165179,2,0,B|416:128|416:64,1,100
415,67,165862,2,0,B|416:0|352:0,1,100
288,0,166546,1,0
224,0,166774,1,0
192,64,167001,5,2
160,0,167229,1,0
128,64,167457,1,0
160,128,167685,1,0
96,128,167913,1,0
64,64,168140,1,0
32,128,168368,1,0
0,64,168596,1,0
32,0,168824,1,0
96,0,169052,1,0
128,64,169280,1,0
96,128,169507,1,0
160,128,169735,1,0
128,192,169963,1,0
192,192,170191,1,0
160,256,170419,1,0
224,256,170647,6,0,B|288:256|320:192,1,100
320,192,171330,2,0,B|352:128|416:128,1,100
448,128,172013,1,2
512,128,172241,1,2
512,128,172469,2,0,B|512:64|448:32,1,100
416,32,173153,2,0,B|288:32,1,100
256,32,173836,1,2
192,32,174064,1,2
128,32,174292,2,0,B|64:32|64:96,1,100
64,92,174975,2,2,B|64:160|128:160,1,100
192,160,175659,1,2
256,160,175887,1,2
224,224,176114,5,2
288,224,176342,1,0
256,288,176570,1,0
320,288,176798,1,0
288,352,177026,1,0
224,352,177253,1,0
192,288,177481,1,0
224,224,177709,1,0
160,224,177937,6,0,B|96:224|64:160,1,100
64,128,178620,2,0,B|96:64|160:64,1,100
192,64,179304,1,2
256,64,179532,1,2
320,64,179760,2,0,B|384:64|416:128,1,100
416,160,180443,2,0,B|416:224|352:256,1,100
320,256,181126,1,0
256,256,181354,1,0
256,192,181582,5,2
192,224,181810,1,0
192,160,182038,1,0
256,128,182266,1,0
192,96,182493,1,0
256,64,182721,1,0
192,32,182949,1,0
256,0,183177,1,0
320,32,183405,1,0
320,96,183633,1,0
384,64,183860,1,0
384,128,184088,1,0
448,96,184316,1,0
448,160,184544,1,0
512,128,184772,1,0
512,192,185000,1,0
512,256,185227,5,0
480,320,185455,1,0
448,256,185682,1,0
416,320,185910,1,0
320,320,186366,1,0
288,256,186594,1,0
256,320,186821,1,0
224,256,187049,1,0
256,192,187277,1,0
320,192,187505,1,0
288,128,187733,1,0
416,128,188188,1,0
384,192,188416,1,0
352,256,188644,1,0
256,192,188872,12,4,194568
