osu file format v6

[General]
AudioFilename: 09 - Keane - This Is The Last Time.mp3
AudioLeadIn: 0
PreviewTime: -1
Countdown: 1
SampleSet: Soft
StackLeniency: 0.7
Mode: 0
LetterboxInBreaks: 1

[Editor]
DistanceSpacing: 0.800000011920929
BeatDivisor: 2
GridSize: 32

[Metadata]
Title:This Is The Last Time
Artist:Keane
Creator:ShokuMasterLord
Version:Hard
Source:
Tags:

[Difficulty]
HPDrainRate:6
CircleSize:5
OverallDifficulty:5
SliderMultiplier:1
SliderTickRate:1

[Events]
//Background and Video events
0,0,"hnf.jpg"
Video,-833,"keane_-_this_is_the_last_time_bgvid.avi"
//Break Periods
2,30496,41855
2,73555,85597
2,103172,115214
2,146687,158501
//Storyboard Layer 0 (Background)
//Storyboard Layer 1 (Fail)
//Storyboard Layer 2 (Pass)
//Storyboard Layer 3 (Foreground)
//Storyboard Sound Samples
//Background Colour Transformations
3,100,163,162,255

[TimingPoints]
15716.0077369775,455.650060753341,4,2,0,100,1,0
163356,455.950060753341,4,2,0,100,1,1

[HitObjects]
128,96,15720,1,0
224,64,16171,1,0
224,128,16399,1,0
320,96,16855,1,2
384,96,17082,1,2
448,96,17310,1,2
448,160,17538,5,0
416,256,17994,1,0
480,256,18222,1,0
448,352,18677,1,2
384,352,18905,1,2
320,352,19133,1,2
256,352,19361,5,0
224,288,19589,1,0
192,352,19816,1,0
160,288,20044,2,0,B|128:352|64:352,1,100
64,288,20728,1,2
96,224,20955,1,2
32,224,21183,5,0
64,96,21639,1,0
128,96,21867,1,0
224,64,22322,1,2
256,128,22550,1,2
288,64,22778,1,2
320,128,23006,6,0,B|384:128,3,50
448,128,24145,1,2
512,160,24373,1,2
448,192,24601,1,2
512,224,24829,2,0,B|512:288,3,50
448,256,25968,1,2
448,320,26195,1,2
480,384,26423,1,2
416,384,26651,6,0,B|352:352|352:288,1,100
352,256,27335,2,0,B|352:192|288:160,1,100
256,192,28018,2,0,B|256:256|192:288,1,100
160,320,28702,2,0,B|96:352|32:352,1,100
64,288,29385,1,0
64,160,29841,1,0
192,160,30296,1,4
224,128,43055,6,0,B|224:256,1,100
256,192,43966,2,4,B|320:128,1,50
352,160,44421,2,4,B|416:224,1,50
448,192,44877,6,0,B|448:64|384:32|288:32|224:64,1,400
224,192,47383,1,0
256,288,47839,1,0
320,288,48067,1,0
288,352,48294,1,0
224,384,48522,1,0
32,384,49206,1,0
96,352,49434,1,0
32,320,49661,1,0
96,288,49889,1,0
32,256,50117,1,0
96,224,50345,2,0,B|32:192|32:128|96:96,1,150
128,96,51256,1,0
160,160,51484,1,0
192,96,51712,1,0
224,160,51940,1,0
256,96,52168,6,0,B|416:96,1,150
448,96,53079,1,0
448,192,53534,1,0
448,320,53990,2,0,B|320:320,1,100
320,320,54674,1,0
192,320,55130,1,2
160,256,55358,1,2
160,192,55586,1,2
160,128,55813,2,0,B|160:64|224:0|288:0,2,150
192,192,57407,1,0
224,128,57635,1,0
320,128,58319,1,0
192,288,58774,1,2
256,288,59002,1,2
320,288,59230,1,2
359,352,59458,6,0,B|135:352,1,200
96,352,60597,1,0
64,352,60825,1,0
32,352,61053,1,0
32,256,61508,1,2
96,224,61736,1,2
32,192,61964,1,2
96,160,62192,1,2
32,64,62647,1,2
96,96,63103,2,0,B|256:96,1,150
160,160,64242,1,2
224,160,64470,1,2
288,160,64698,1,2
352,160,64926,2,0,L|352:224|256:224,2,150
416,160,66520,1,0
480,160,66748,1,0
480,256,67887,5,0
448,320,68115,1,0
416,256,68343,2,0,B|384:192|320:192|256:192,1,250
128,96,70394,5,0
384,160,71077,1,0
128,256,71760,1,0
384,320,72216,1,0
384,320,72444,1,0
384,320,72672,1,0
384,320,72900,1,0
384,320,73127,1,0
384,320,73355,1,0
128,96,86797,5,0
192,192,87253,1,0
256,96,87708,1,0
320,192,88164,1,2
384,96,88620,1,4
448,96,88847,1,0
512,96,89075,1,0
512,160,89303,1,0
512,160,89986,1,0
512,256,90442,5,4
448,256,90670,1,0
384,256,90898,1,0
320,256,91126,1,0
128,224,91581,1,2
192,256,91809,1,2
256,288,92037,1,2
192,320,92265,2,0,B|128:320|96:256,1,100
96,224,92948,2,0,B|96:160|160:128,1,100
192,128,93632,2,0,B|320:128,1,100
352,128,94315,2,0,B|416:160|416:224,1,100
416,288,94999,1,0
320,288,95454,1,0
224,288,95910,5,0
160,256,96138,1,0
160,320,96366,1,0
96,288,96593,1,0
96,224,96821,1,0
160,192,97049,1,0
96,160,97277,1,0
96,32,97733,1,0
160,64,97960,1,0
224,96,98188,1,0
160,128,98416,1,0
224,160,98644,1,0
288,128,98872,1,0
288,192,99099,1,0
384,160,99555,5,0
384,288,100011,1,0
384,320,100239,1,0
160,320,100694,1,0
128,320,100922,1,0
96,320,101150,1,0
64,320,101378,1,0
96,192,101833,5,0
32,192,102061,1,0
0,96,102517,1,0
64,96,102745,1,0
128,96,102972,1,0
160,224,116414,6,4,B|160:160,5,50
224,192,117781,6,0,B|224:96|256:64|480:64,1,300
448,160,119604,1,0
512,256,120287,1,0
384,288,120743,1,2
384,224,120970,1,2
320,256,121198,1,2
320,320,121426,2,0,B|256:320|224:256,1,100
224,224,122110,2,0,B|192:160|128:160,1,100
96,160,122793,2,0,B|32:128|32:64,1,100
32,32,123477,2,0,B|64:0|128:0,1,100
160,64,124160,1,2
192,0,124388,1,2
224,64,124616,1,2
256,0,124844,1,2
288,64,125072,6,0,B|352:96|352:160,1,100
352,192,125755,2,0,B|384:256|448:256,1,100
480,256,126438,2,2,B|480:320|416:352,1,100
384,352,127122,2,2,B|256:352,1,100
224,352,127805,1,0
192,288,128033,1,0
160,352,128261,1,0
128,288,128489,1,0
96,352,128717,1,0
96,192,129400,1,0
96,32,130084,1,2
96,128,130995,1,0
128,192,131223,1,0
256,128,131678,1,0
288,192,131906,1,0
320,128,132134,1,0
352,160,132362,6,0,B|416:192|416:288|352:352,2,200
480,160,134640,1,2
480,96,134868,1,2
416,64,135096,1,2
512,0,135551,1,0
416,0,136007,1,2
288,0,136691,1,2
160,0,137374,1,2
224,96,138285,1,2
288,96,138513,1,2
256,160,138741,1,2
256,224,138969,1,0
256,288,139197,1,0
256,288,139424,1,0
256,288,139652,1,0
192,352,140791,1,2
256,352,141019,1,2
320,352,141247,1,2
352,224,141703,5,0
320,288,141931,1,0
288,224,142158,1,0
256,288,142386,1,0
224,224,142614,1,0
192,288,142842,1,0
160,224,143070,1,0
128,288,143298,1,0
384,224,143981,1,0
128,128,144664,1,0
384,96,145120,1,0
384,96,145348,1,0
384,96,145575,1,0
384,96,145803,1,0
384,96,146031,1,0
384,96,146259,1,0
384,96,146487,1,0
160,77,159701,6,2,B|160:141,1,50
224,128,160157,2,2,B|224:192,1,50
288,128,160612,2,2,B|288:64,1,50
352,128,161068,2,2,B|352:192,1,50
352,224,161524,6,6,B|224:224,1,100
192,224,162207,1,6
160,288,162435,1,6
224,288,162663,1,6
288,288,162890,1,6
352,288,163118,1,6
288,320,163356,6,0,B|160:320,2,100
320,256,164495,1,2
288,192,164723,1,2
256,256,164951,1,2
224,192,165179,1,2
128,128,165634,1,0
192,128,166090,5,0
224,64,166318,1,0
256,128,166546,1,0
288,64,166774,1,0
320,128,167001,2,2,B|352:192|352:256|320:288,2,150
384,128,168824,1,2
416,64,169052,1,2
448,128,169280,1,2
480,64,169507,1,2
512,128,169735,1,2
480,192,169963,1,2
512,256,170191,1,2
480,320,170419,1,2
448,256,170647,1,2
480,160,171102,5,0
416,160,171330,1,0
320,128,171786,1,2
288,64,172013,1,2
352,64,172241,1,2
416,64,172469,1,2
512,0,172925,1,0
448,0,173153,1,0
320,0,173608,1,2
288,64,173836,1,2
256,0,174064,1,2
192,0,174292,2,0,B|128:64|160:160,2,150
224,64,176114,1,0
288,64,176342,1,0
256,128,176570,1,0
320,128,176798,1,0
288,192,177026,1,0
192,192,177481,1,0
128,256,177937,6,0,B|128:320|320:320,1,200
352,320,179304,1,0
384,256,179532,1,0
512,256,179987,1,0
448,256,180215,1,0
416,192,180443,1,0
480,192,180671,1,0
416,128,181126,1,0
512,128,181582,2,0,B|512:64|448:32|384:32,2,150
512,160,183405,1,0
512,224,183633,1,0
512,288,183860,1,0
512,352,184088,1,0
448,384,184316,1,0
416,320,184544,1,0
384,384,184772,1,0
352,320,185000,1,0
320,384,185227,5,0
192,384,185911,1,0
224,320,186366,1,0
288,320,186594,1,0
256,256,186822,1,0
256,192,187050,1,0
256,192,187961,1,0
256,192,188873,12,6,194569
