osu file format v9

[General]
AudioFilename: .mp3
AudioLeadIn: 2500
PreviewTime: -1
Countdown: 1
SampleSet: Soft
StackLeniency: 0.7
Mode: 0
LetterboxInBreaks: 1

[Editor]
DistanceSpacing: 1
BeatDivisor: 4
GridSize: 8

[Metadata]
Title:DeKkEEoMeE!
Artist:KeNNy
Creator:Rigeru
Version:SuddenAttack
Source:counter-strike
Tags:KeNNy suddenattack

[Difficulty]
HPDrainRate:10
CircleSize:7
OverallDifficulty:10
ApproachRate:0
SliderMultiplier:1.4
SliderTickRate:1

[Events]
//Background and Video events
0,0,"sting91.jpg"
//Break Periods
//Storyboard Layer 0 (Background)
//Storyboard Layer 1 (Fail)
//Storyboard Layer 2 (Pass)
//Storyboard Layer 3 (Foreground)
//Storyboard Sound Samples
//Background Colour Transformations
3,100,192,192,192

[TimingPoints]
2877,348.837209302326,4,2,0,100,1,0
4272,-100,4,2,0,0,0,0
6365,-100,4,2,0,51,0,0
8545,797.872340425532,4,2,0,100,1,0
8945,300,4,2,0,100,1,0
9095,250,4,2,0,100,1,0
9345,300,4,2,0,100,1,0
9945,249.999999999999,4,2,0,100,1,0
12194,249.999999999999,4,2,0,100,1,0
17693,375,4,2,0,100,1,0
17693,-100,4,2,0,0,0,0
20130,-100,4,2,0,52,0,0
20318,250,4,2,0,100,1,0
20443,176.470588235294,4,2,0,100,1,0
20618,200,4,2,0,100,1,0
20718,300,4,2,0,100,1,0
21293,300,4,2,0,100,1,0
21443,200,4,2,0,100,1,0
21793,200,4,2,0,100,1,0
23593,-100,4,1,0,100,0,0
23793,200,4,2,0,100,1,0
23793,-100,4,1,0,100,0,1
34993,-100,4,2,0,100,0,0

[Colours]
Combo1 : 240,5,5
Combo2 : 5,240,5
Combo3 : 5,5,240

[HitObjects]
256,184,4272,1,0
256,184,4446,1,0
256,184,4795,1,0
256,184,4970,1,0
256,184,5318,1,0
256,184,5492,1,0
256,184,5842,1,0
256,184,6016,1,0
256,184,6190,1,0
256,184,6627,1,0
256,184,6714,1,0
256,192,8458,1,0
256,192,8545,1,0
256,192,8744,1,0
256,192,8943,1,0
256,192,9220,1,0
256,192,9345,1,0
256,192,9645,1,0
256,192,9945,1,0
256,192,10070,1,0
256,192,10194,1,0
256,184,12194,1,0
256,184,12319,1,0
256,184,12443,1,0
256,184,12568,1,0
256,184,12693,1,0
256,184,12818,1,0
256,184,12881,1,0
248,192,15193,1,0
248,192,15318,1,0
248,192,15443,1,0
248,192,15568,1,0
248,192,15693,1,0
248,192,15818,1,0
248,192,15881,1,0
248,192,16318,1,0
248,192,16443,1,0
248,192,16506,1,0
248,192,16568,1,0
248,192,17693,1,0
248,192,17786,1,0
248,192,17880,1,0
248,192,17974,1,0
248,192,18068,1,0
248,192,18161,1,0
248,192,18255,1,0
248,192,18349,1,0
248,192,18443,1,0
248,192,18536,1,0
248,192,18630,1,0
248,192,18724,1,0
248,192,18818,1,0
248,192,18911,1,0
248,192,19005,1,0
248,192,19099,1,0
248,192,19193,1,0
248,192,19286,1,0
248,192,20318,1,0
248,192,20443,1,0
248,192,20618,1,0
248,192,20668,1,0
248,192,20718,1,0
248,192,21293,1,0
248,192,21368,1,0
248,192,21443,1,0
248,192,21643,1,0
248,192,21693,1,0
248,192,21843,1,0
248,192,21893,1,0
248,192,21993,1,0
248,192,22043,1,0
248,192,22193,1,0
248,192,22293,1,0
248,192,22343,1,0
288,152,23793,1,4
328,240,23843,1,4
232,264,23893,1,4
160,256,23943,1,4
240,104,23993,1,4
128,112,24043,1,4
120,192,24093,1,4
336,160,24143,1,4
208,168,24193,1,4
256,192,24293,12,0,28143
256,192,28293,5,0
256,192,28493,1,0
256,192,28543,1,0
256,192,28593,1,0
256,192,28993,1,0
256,192,29193,5,0
256,192,29393,1,0
256,192,29593,1,0
256,192,29943,1,0
256,192,29993,1,0
256,192,30043,1,0
256,192,30243,1,0
256,192,30343,1,0
256,192,30493,1,0
256,192,30593,1,0
256,192,30743,1,0
256,192,30893,1,0
256,192,30943,1,0
256,192,30993,1,0
256,192,33193,1,0
256,192,33343,1,0
256,192,33443,1,0
256,192,33593,1,0
256,192,34393,1,0
256,192,34493,1,0
256,192,34593,1,0
256,192,34743,1,0
256,192,34843,1,0
256,192,34943,1,0
