osu file format v9

[General]
AudioFilename: .mp3
AudioLeadIn: 2500
PreviewTime: -1
Countdown: 1
SampleSet: Soft
StackLeniency: 0.7
Mode: 0
LetterboxInBreaks: 1

[Editor]
DistanceSpacing: 1
BeatDivisor: 4
GridSize: 8

[Metadata]
Title:DeKkEEoMeE!
Artist:KeNNy
Creator:Rigeru
Version:Insane
Source:counter-strike
Tags:KeNNy suddenattack

[Difficulty]
HPDrainRate:10
CircleSize:4
OverallDifficulty:10
ApproachRate:9
SliderMultiplier:1.4
SliderTickRate:1

[Events]
//Background and Video events
0,0,"sting91.jpg"
//Break Periods
2,10519,11594
2,13205,14593
2,24543,30268
//Storyboard Layer 0 (Background)
//Storyboard Layer 1 (Fail)
//Storyboard Layer 2 (Pass)
//Storyboard Layer 3 (Foreground)
//Storyboard Sound Samples
//Background Colour Transformations
3,100,192,192,192

[TimingPoints]
2877,348.837209302326,4,2,0,100,1,0
8545,797.872340425532,4,2,0,100,1,0
8945,300,4,2,0,100,1,0
9095,250,4,2,0,100,1,0
9345,300,4,2,0,100,1,0
9945,249.999999999999,4,2,0,100,1,0
12194,249.999999999999,4,2,0,100,1,0
17693,375,4,2,0,100,1,0
20318,250,4,2,0,100,1,0
20443,176.470588235294,4,2,0,100,1,0
20618,200,4,2,0,100,1,0
20718,300,4,2,0,100,1,0
21293,300,4,2,0,100,1,0
21443,200,4,2,0,100,1,0
21793,200,4,2,0,100,1,0
23793,200,4,2,0,100,1,0

[Colours]
Combo1 : 240,5,5
Combo2 : 5,240,5
Combo3 : 5,5,240

[HitObjects]
256,192,347,12,0,2528
184,184,2877,6,2,B|224:240|224:240|296:240,2,140
184,184,3749,1,2
384,80,4447,5,0
408,144,4621,2,0,B|408:200|376:224|320:232,1,140
256,192,5144,2,0,B|224:240|240:280|296:312,1,140
256,192,5667,2,0,B|288:144|272:104|216:72,1,140
256,192,6626,5,0
152,192,8545,2,0,B|192:192,1,23.3333333333333
408,192,9095,1,0
328,112,9345,6,0,B|288:72,2,35
376,160,9645,1,0
424,208,9795,2,0,B|448:232,1,35
384,272,10070,2,0,B|336:320|296:312|256:288,1,140,0|0
120,128,12194,5,0
216,176,12381,1,0
216,176,12443,1,0
216,176,12506,1,0
216,176,12568,1,0
216,176,12756,2,0,B|288:176,2,70
432,136,15193,5,0
328,160,15381,1,0
328,160,15443,1,0
328,160,15506,1,0
328,160,15568,1,0
264,128,15693,2,0,B|192:128,2,70
256,192,16381,5,0
256,192,16506,1,0
144,136,17693,5,0
120,160,17786,1,0
104,192,17880,1,0
104,224,17974,1,0
120,256,18068,2,0,B|144:280,3,35
176,288,18443,1,0
208,296,18536,1,0
240,296,18630,1,0
272,288,18724,1,0
296,264,18818,2,0,B|320:240,3,35
136,192,20318,6,0,B|208:192,2,70
136,192,20718,1,0
136,192,20868,1,0
312,96,21293,5,0
368,184,21443,1,0
376,216,21493,1,0
352,240,21543,1,0
176,264,21793,2,0,B|32:264,1,140
32,160,22143,1,0
104,160,22243,1,0
208,160,22393,1,0
200,176,23793,5,0
200,176,23993,1,0
200,176,24093,1,0
304,200,24243,1,0
368,232,24343,1,0
416,96,30868,5,0
416,152,31198,1,0
408,296,33420,5,0
360,296,33585,1,0
360,248,33750,1,0
320,248,33873,1,0
280,248,34038,1,12
216,200,34490,1,12
216,136,34779,1,12
280,136,35067,1,12
