osu file format v9

[General]
AudioFilename: Ke$ha - We R Who We R.mp3
AudioLeadIn: 0
PreviewTime: 51195
Countdown: 0
SampleSet: Soft
StackLeniency: 0.7
Mode: 0
LetterboxInBreaks: 0

[Editor]
DistanceSpacing: 1
BeatDivisor: 4
GridSize: 8

[Metadata]
Title:We R Who We R
Artist:Ke$ha
Creator:Roddie
Version:Hard
Source:
Tags:Cannibal kesha Bourdon the_08 team_bourdon team

[Difficulty]
HPDrainRate:7
CircleSize:5
OverallDifficulty:7
ApproachRate:7
SliderMultiplier:1.8
SliderTickRate:2

[Events]
//Background and Video events
0,0,"BG.jpg"
//Break Periods
2,76641,86792
2,152642,159542
//Storyboard Layer 0 (Background)
//Storyboard Layer 1 (Fail)
//Storyboard Layer 2 (Pass)
//Storyboard Layer 3 (Foreground)
//Storyboard Sound Samples
//Background Colour Transformations
3,100,163,162,255

[TimingPoints]
8442,500,4,2,1,60,1,0
16317,-100,4,1,1,50,0,0
40317,-100,4,1,1,20,0,0
40567,-100,4,2,1,50,0,0
56442,-100,4,1,1,50,0,1
70942,-100,4,1,1,50,0,0
72317,-100,4,2,1,60,0,0
76442,-100,4,1,1,60,0,0
87567,-100,4,2,1,60,0,0
88317,-100,4,1,1,60,0,0
104442,-100,4,1,1,20,0,0
104567,-100,4,2,1,50,0,0
120442,-100,4,1,1,60,0,1
135442,-100,4,2,1,0,0,0
136317,-100,4,2,1,10,0,0
140317,-100,4,2,1,20,0,0
144317,-100,4,2,1,30,0,0
152442,-100,4,1,1,20,0,0
160317,-100,4,1,1,60,0,0
165132,-100,4,1,1,10,0,0
165695,-100,4,1,1,40,0,0
166195,-100,4,1,1,59,0,0
167132,-100,4,2,1,0,0,0
168442,-100,4,1,1,60,0,1
183192,-100,4,1,1,60,0,0
184442,-100,4,1,1,60,0,1
200442,-100,4,2,1,10,0,0

[Colours]
Combo1 : 255,128,255
Combo2 : 0,128,255
Combo3 : 0,255,128
Combo4 : 255,255,128
SliderBorder : 0,0,0

[HitObjects]
344,136,8442,5,8
288,184,8692,1,0
248,208,8817,1,0
208,232,8942,1,8
120,240,9192,2,0,B|136:288|192:312,1,90,0|8
264,336,9692,1,0
264,336,9817,1,0
264,336,9942,1,8
336,280,10192,1,0
384,208,10442,2,0,B|392:144|344:104,1,90,8|0
362,123,10817,1,0
362,123,10942,1,8
288,64,11192,6,0,B|208:104,1,90,0|8
152,176,11692,2,0,B|152:240,2,45,0|0|8
152,88,12192,1,0
216,24,12442,2,0,B|256:64|256:128,1,90,8|0
254,103,12817,1,0
254,103,12942,1,8
312,176,13192,6,0,B|312:232|264:272,1,90,0|8
232,336,13692,1,0
232,336,13817,1,0
232,336,13942,1,8
168,272,14192,1,0
104,208,14442,2,0,B|128:112,1,90,8|0
125,120,14817,1,0
125,120,14942,1,8
216,112,15192,1,0
256,32,15442,5,8
32,184,15942,1,8
256,352,16442,5,0
312,280,16692,1,0
312,280,16817,1,0
312,280,16942,1,8
344,192,17192,1,0
296,120,17442,1,0
256,96,17567,1,0
216,80,17692,1,0
128,80,17942,1,8
64,144,18192,2,0,B|120:216,1,90
176,280,18692,2,0,B|176:344,2,45,0|0|8
176,192,19192,5,0
232,120,19442,1,0
312,160,19692,1,0
320,248,19942,1,8
232,264,20192,1,0
232,264,20317,1,0
232,264,20442,1,0
144,248,20692,2,0,B|160:280|136:304,2,45,0|0|8
144,160,21192,5,0
200,88,21442,2,0,B|264:168,1,90
312,232,21942,2,0,B|240:312,1,90,8|0
184,352,22442,1,0
136,280,22692,1,0
104,248,22817,1,0
96,208,22942,1,8
96,120,23192,1,0
256,40,23692,2,0,B|208:96|296:160|216:208,1,180
144,248,24442,5,0
256,328,24817,1,0
368,248,25192,1,0
448,144,25567,1,0
312,120,25942,1,8
184,240,26442,5,0
120,176,26692,1,0
168,96,26942,1,8
352,96,27442,1,0
392,176,27692,1,0
336,240,27942,1,8
256,192,28192,1,0
248,104,28442,6,0,B|192:104|144:144,1,90
163,129,28942,1,8
163,129,29192,2,0,B|112:152|96:200,1,90
99,190,29692,1,0
99,190,29942,2,0,B|72:232|104:288,1,90,8|0
168,336,30442,5,0
168,336,30567,1,0
168,336,30692,1,0
248,296,30942,1,8
248,208,31192,1,0
248,120,31442,1,0
248,120,31567,1,0
248,120,31692,1,0
248,208,31942,1,8
248,208,32192,1,0
168,256,32442,6,0,B|192:304|264:304,1,90
328,304,32942,1,8
392,240,33192,2,0,B|352:208|392:184|352:152,2,90
392,240,33942,1,8
256,128,34442,2,0,B|160:104|64:192,2,180,0|8|0
328,184,35692,1,0
256,232,35942,5,8
256,232,36192,1,0
280,144,36442,2,0,B|176:144,1,90
88,216,36942,2,0,B|184:216,1,90,8|0
280,288,37442,2,0,B|176:288,1,90
96,288,37942,1,8
184,184,38192,5,0
184,184,38442,1,4
360,232,38942,5,8
432,176,39192,1,0
448,88,39442,1,0
360,96,39692,2,0,B|264:112,1,90,0|8
271,110,40192,1,0
184,128,40442,5,4
40,232,40942,1,0
208,296,41442,1,0
296,192,41817,1,0
184,120,42192,1,0
184,208,42442,1,0
264,256,42692,1,2
416,56,43192,6,0,B|328:56,1,90
232,56,43692,1,0
152,96,43942,2,0,B|96:112|72:176,1,90
80,240,44442,5,2
256,288,44942,1,0
432,240,45442,1,0
312,168,45817,1,0
256,48,46192,1,0
256,136,46442,1,0
176,96,46692,1,2
56,320,47192,6,0,B|96:352|160:304,2,90
88,240,47942,2,0,B|64:192|80:152,1,90
136,80,48442,5,2
256,216,48942,1,0
416,296,49442,1,0
464,168,49817,1,0
384,64,50192,1,0
328,136,50442,1,0
384,208,50692,1,2
136,168,51192,6,0,B|104:216|144:264,1,90
135,252,51692,2,0,B|176:288|224:248,1,90
217,254,52192,2,0,B|249:206|209:158,1,90,0|2
448,192,52942,1,0
392,128,53192,1,0
256,248,53692,1,0
176,216,53942,1,0
112,152,54192,1,0
256,192,54442,12,0,56192
256,40,56442,5,4
32,192,56942,1,8
256,344,57442,1,0
256,208,57817,1,0
256,208,57942,1,8
256,120,58192,1,0
256,208,58442,2,0,B|344:248|432:208,1,180,0|8
384,128,59192,5,0
384,128,59442,1,0
320,192,59692,1,0
256,256,59942,1,8
256,344,60192,1,0
256,344,60442,5,0
472,192,60942,1,8
256,32,61442,1,0
256,168,61817,1,0
256,168,61942,1,8
256,256,62192,1,0
176,216,62442,2,0,B|160:112|264:80,1,180,0|8
256,168,63192,5,0
336,136,63442,1,0
264,80,63692,1,0
192,136,63942,1,8
112,184,64192,1,0
24,192,64442,5,0
256,352,64942,1,8
472,192,65442,1,0
336,184,65817,2,0,B|280:184,1,45,0|8
200,184,66192,1,0
112,184,66442,2,0,B|96:128|152:112,2,90,0|0|8
64,264,67192,6,0,B|152:264,1,90
154,264,67692,2,0,B|256:264,1,90,0|8
244,264,68192,2,0,B|344:264,1,90,0|4
424,112,68942,2,0,B|248:80,1,180,8|0
246,79,69692,1,0
160,112,69942,1,8
208,184,70192,2,0,B|392:232,1,180
382,229,70942,1,8
208,184,72442,5,2
208,184,72692,2,0,B|288:112,1,90
352,80,73192,1,0
352,80,73317,1,0
352,80,73442,2,0,B|376:136|352:176,2,90,0|0|2
280,128,74192,1,0
208,184,74442,2,0,B|128:256,1,90
141,244,74817,1,0
141,244,74942,1,2
64,288,75192,6,0,B|64:184,1,90
64,104,75692,1,0
96,72,75817,1,0
136,56,75942,1,8
216,96,76192,2,0,B|312:96,1,90
440,192,87692,6,0,B|360:176|432:96|336:48,1,180
296,128,88442,2,0,B|232:184|272:280,2,135
432,128,89567,2,0,B|496:184|456:280,1,135,0|8
288,224,90442,2,0,B|256:192,2,45
360,280,90942,2,0,B|368:176|280:120,1,180,8|0
112,176,91942,5,8
184,224,92192,1,0
184,224,92442,2,0,B|192:296|288:312,2,135
184,88,93567,2,0,B|192:16|288:16,1,135,0|8
376,168,94442,6,0,B|400:120,2,45,0|0|0
336,248,94942,2,0,B|248:264|152:248,1,180,8|0
112,72,95942,5,8
160,152,96192,1,0
208,72,96442,2,0,B|400:72,1,180,0|8
388,72,97192,2,0,B|472:160|392:240,1,180
400,231,97942,1,8
280,96,98442,6,0,B|288:48,2,45
216,160,98942,2,0,B|168:232|72:272,1,180,8|0
256,256,99942,5,8
256,256,100192,1,0
344,224,100442,1,0
336,136,100692,2,0,B|232:136,1,90,0|8
152,136,101192,1,0
80,80,101442,2,0,B|40:32,2,45
152,136,101942,1,8
256,48,102192,5,0
256,48,102442,1,4
256,224,102942,5,8
256,224,103192,2,0,B|160:224,1,90
320,144,103692,2,0,B|432:144,1,90,0|8
256,72,104192,2,0,B|152:72,1,90,0|4
88,232,104942,5,0
256,296,105442,2,0,B|312:256|336:176,1,135
200,232,106192,2,0,B|188:281|128:296,2,90,0|0|2
352,136,107192,6,0,B|352:40,1,90
264,136,107692,2,0,B|264:40,1,90
176,136,108192,2,0,B|176:32,1,90,0|2
72,192,108942,5,0
248,224,109442,2,0,B|288:168|360:128,1,135
232,64,110192,2,0,B|207:108|168:136,2,90,0|0|2
208,240,111192,6,0,B|208:336,1,90
120,240,111692,2,0,B|120:336,1,90
32,240,112192,2,0,B|32:336,1,90,0|2
96,160,112942,5,0
256,240,113442,2,0,B|328:248|384:208,1,135
384,72,114192,2,0,B|288:72,1,90
294,72,114692,1,2
136,64,115192,6,0,B|96:80|72:128,1,90
73,125,115692,2,0,B|48:168|80:232,1,90
71,212,116192,2,0,B|104:264|160:248,1,90,0|2
256,24,116942,6,0,B|256:208,1,180
256,204,117692,1,0
256,296,117942,1,0
256,296,118192,2,0,B|168:272|120:184,1,180,0|2
352,80,119192,5,0
424,136,119442,1,0
464,216,119692,1,0
464,304,119942,1,0
400,360,120192,1,0
352,288,120442,6,0,B|264:288,1,90,4|0
120,208,120942,2,0,B|216:208,1,90,8|0
344,120,121442,2,0,B|208:120,1,135
209,120,121942,1,8
120,120,122192,1,0
120,120,122442,1,0
64,192,122692,1,0
120,264,122942,1,8
192,312,123192,6,0,B|296:312,1,90
416,224,123692,2,0,B|312:224,1,90,0|8
192,128,124192,2,0,B|288:128,2,90
80,128,124942,5,8
280,208,125442,2,0,B|264:280|168:288,1,135
181,286,125942,1,8
88,232,126192,1,0
184,184,126442,1,0
184,184,126692,1,0
264,112,126942,1,8
384,88,127192,6,0,B|384:192,1,90
384,178,127692,2,0,B|392:240|328:264,1,90,0|8
348,254,128192,2,0,B|296:256|264:312,1,90
80,192,128942,5,8
256,64,129442,1,0
256,224,129817,2,0,B|256:168,1,45,0|8
256,64,130192,1,0
256,64,130442,1,0
328,144,130692,1,0
256,224,130942,1,8
184,144,131192,6,0,B|88:144,1,90
184,232,131692,2,0,B|88:232,1,90,0|8
184,320,132192,2,0,B|80:320,2,90,0|4|0
296,320,132942,5,8
376,248,133192,1,0
256,64,133692,1,0
184,144,133942,1,8
256,224,134192,1,0
328,144,134442,1,0
256,224,134692,1,0
256,224,134817,1,0
256,224,134942,1,8
472,192,136442,5,0
368,192,136692,1,0
368,192,136817,6,0,B|368:104,1,90
344,56,137192,2,0,B|288:10|240:10,1,90,2|0
232,56,137567,2,0,B|222:116|166:156,1,90
152,176,137942,2,0,B|136:240|192:280,1,90,0|0
216,280,138317,2,0,B|264:288|312:240,1,90
336,208,138692,2,0,B|336:152|296:104,1,90,2|0
256,120,139067,2,0,B|232:168|248:216,1,90
245,207,139442,5,0
424,88,139942,1,0
440,304,140442,1,0
376,216,140692,1,0
376,216,140817,6,0,B|344:160|288:136,1,90
264,136,141192,2,0,B|216:128|168:136,1,90,2|0
144,184,141567,2,0,B|152:240|120:288,1,90
88,304,141942,2,0,B|56:272|56:216,1,90
32,176,142317,2,0,B|24:128|56:88,1,90
104,112,142692,2,0,B|144:88|200:96,1,90,2|0
216,144,143067,2,0,B|248:192|304:208,1,90
284,200,143442,5,0
96,304,143942,1,0
168,104,144442,1,0
264,64,144692,1,0
264,64,144817,6,0,B|312:96|328:144,1,90
322,130,145192,2,0,B|272:160|256:208,1,90,2|0
261,194,145567,2,0,B|272:256|232:288,1,90
241,278,145942,2,0,B|192:304|136:272,1,90
154,281,146317,2,0,B|104:240|128:184,1,90
121,202,146692,2,0,B|152:160|128:112,1,90,2|0
130,117,147067,2,0,B|176:88|224:120,1,90
215,114,147442,5,0
352,280,147942,1,0
488,112,148442,1,0
384,112,148692,1,0
384,112,148817,6,0,B|296:112,1,90
294,112,149192,2,0,B|248:112|192:152,1,90,2|0
209,140,149567,2,0,B|184:232,1,90
185,226,149942,2,0,B|200:280|264:304,1,90
241,293,150317,2,0,B|344:296,1,90
331,295,150692,2,0,B|384:264|384:208,1,90,2|0
382,225,151067,2,0,B|328:144,1,90
256,192,151442,12,4,152442
256,40,160442,5,0
168,144,160817,1,0
256,248,161192,1,0
344,144,161567,1,0
256,40,161942,1,0
168,144,162317,1,0
256,248,162692,2,0,B|208:168|304:136|176:72,2,180
328,304,163942,1,0
464,96,164442,5,0
368,192,164817,1,0
256,136,165192,2,0,B|256:160,32,22.5
256,40,168442,6,0,B|176:40|120:104,1,135,4|0
134,89,168942,2,0,B|64:152|88:224,1,135,8|0
83,207,169442,1,0
184,176,169692,2,0,B|160:240,2,45,0|0|8
256,96,170192,1,0
352,144,170442,2,0,B|376:248|272:288,1,180,0|8
184,224,171192,5,0
280,176,171442,1,0
184,128,171692,1,0
280,176,171942,1,8
184,224,172192,1,0
280,304,172442,6,0,B|360:320|408:256,1,135,4|0
401,264,172942,2,0,B|440:200|408:128,1,135,8|0
410,134,173442,1,0
312,96,173692,2,0,B|336:48,2,45,0|0|8
264,192,174192,1,0
176,128,174442,2,0,B|80:144|24:240,1,180,0|8
112,296,175192,5,0
176,216,175442,1,0
248,296,175692,1,0
320,216,175942,1,8
392,296,176192,1,0
408,168,176442,6,0,B|384:96|296:88,1,135,4|0
307,89,176942,2,0,B|208:96|192:192,1,135,8|0
201,158,177442,1,0
296,216,177692,2,0,B|328:264,2,45,0|0|8
201,158,178192,1,0
96,192,178442,2,0,B|96:296|208:336,1,180,0|8
288,272,179192,6,0,B|384:272,2,90
208,200,179942,2,0,B|112:200,2,90,8|0|4
408,112,180942,2,0,B|352:48|232:48,1,180,8|0
245,48,181692,1,0
288,144,181942,1,8
336,240,182192,2,0,B|232:248|168:160,1,180
177,172,182942,1,8
256,192,183192,12,0,184192
256,32,184442,5,4
472,192,184942,1,8
256,352,185442,1,0
256,192,185817,2,0,B|208:176,1,45,0|8
112,152,186192,1,0
160,248,186442,2,0,B|272:248|328:184,1,180,0|8
352,88,187192,5,0
416,176,187442,1,0
352,88,187692,1,0
416,176,187942,1,8
352,88,188192,1,0
256,32,188442,5,4
480,192,188942,1,8
256,352,189442,1,0
256,192,189817,2,0,B|312:160,1,45,0|8
384,104,190192,1,0
288,48,190442,2,0,B|184:56|104:120,1,180,0|8
88,208,191192,5,0
88,208,191442,2,0,B|104:264|152:280,1,90
142,276,191942,2,0,B|191:247|239:279,1,90,8|0
256,376,192442,5,4
472,192,192942,1,8
256,40,193442,1,0
256,200,193817,1,0
256,200,193942,1,8
184,120,194192,1,0
88,168,194442,1,0
136,264,194692,6,0,B|200:336|328:352,1,180
384,296,195442,1,0
448,208,195692,1,0
416,104,195942,1,8
320,64,196192,1,0
232,128,196442,1,4
96,288,196942,6,0,B|200:288,1,90,8|0
376,192,197692,2,0,B|288:192,1,90,0|8
286,192,198192,1,0
256,192,198442,12,0,200442
