osu file format v12

[General]
AudioFilename: Keisha - Tik Tok (Rom.C Remix) www.the-best-mp3.ucoz.lv.mp3
AudioLeadIn: 0
PreviewTime: 118652
Countdown: 0
SampleSet: Soft
StackLeniency: 0.7
Mode: 0
LetterboxInBreaks: 0
WidescreenStoryboard: 1

[Editor]
Bookmarks: 16515,31171,45828,60484,75141,89797
DistanceSpacing: 1.4
BeatDivisor: 4
GridSize: 4

[Metadata]
Title:Tik Tok (Rom.C Remix)
TitleUnicode:Tik Tok (Rom.C Remix)
Artist:Ke$ha
ArtistUnicode:Ke$ha
Creator:ZLOdeuka-
Version:Insane
Source:
Tags:Gabe Animal Electropop -Bakari- dance-pop Rose Sebert Dr. Luke Benny Blanco
BeatmapID:362072
BeatmapSetID:16220

[Difficulty]
HPDrainRate:7
CircleSize:4
OverallDifficulty:7
ApproachRate:8
SliderMultiplier:2
SliderTickRate:2

[Events]
//Background and Video events
0,0,"BG.jpg",0,0
//Break Periods
2,60684,72559
//Storyboard Layer 0 (Background)
//Storyboard Layer 1 (Fail)
//Storyboard Layer 2 (Pass)
//Storyboard Layer 3 (Foreground)
//Storyboard Sound Samples
//Background Colour Transformations
3,100,163,162,255

[TimingPoints]
1859,458.015267175572,4,2,1,60,1,0
16515,-100,4,2,1,80,0,0
16973,-100,4,2,1,60,0,0
31171,-100,4,2,1,80,0,0
31400,-100,4,2,1,80,0,0
75599,-100,4,2,1,100,0,0
75828,-100,4,2,1,70,0,0
104454,-100,4,2,1,70,0,1
104568,-100,4,2,1,80,0,0
118652,-100,4,2,1,70,0,0
119110,-100,4,2,1,80,0,1
133652,-100,4,2,1,70,0,0
133767,-100,4,2,1,70,0,1
133881,-100,4,2,1,70,0,0

[Colours]
Combo1 : 255,174,121
Combo2 : 255,255,170
Combo3 : 255,170,170
Combo4 : 180,159,240

[HitObjects]
76,164,16515,1,4,0:0:0:0:
184,108,16744,1,2,0:0:0:0:
292,56,16973,2,0,P|338:40|384:56,1,100,0|0,1:0|0:0,0:0:0:0:
460,176,17431,2,0,P|414:192|368:176,1,100
260,124,17889,1,0,1:0:0:0:
180,32,18118,1,0,0:0:0:0:
160,232,18347,6,0,P|256:260|350:231,1,200,0|0,0:0|1:0,0:0:0:0:
432,144,19034,2,0,P|448:96|432:52,1,100
312,32,19492,1,0,0:0:0:0:
192,40,19721,1,0,1:0:0:0:
76,68,19950,2,0,P|59:114|75:160,1,100
192,272,20408,5,2,0:0:0:0:
300,320,20637,2,0,L|400:336,1,100,0|0,1:0|0:0,0:0:0:0:
480,220,21095,2,0,L|380:204,1,100
304,112,21553,1,0,1:0:0:0:
396,36,21782,1,0,0:0:0:0:
204,88,22011,6,0,P|108:112|12:88,1,200,0|0,0:0|1:0,0:0:0:0:
16,208,22698,2,0,P|60:224|112:224,1,100
228,184,23156,1,0,0:0:0:0:
276,292,23385,1,0,1:0:0:0:
164,336,23614,1,0,0:0:0:0:
272,168,23843,6,0,P|368:144|464:168,1,200,0|0,0:0|1:0,0:0:0:0:
492,284,24530,1,2,0:0:0:0:
380,324,24759,2,0,P|284:348|188:324,1,200,0|0,0:0|1:0,0:0:0:0:
116,228,25446,1,2,0:0:0:0:
148,72,25675,6,0,P|196:56|248:72,1,100
316,188,26133,2,0,P|268:204|216:188,1,100,0|0,1:0|0:0,0:0:0:0:
308,112,26591,1,0,0:0:0:0:
392,200,26820,1,0,0:0:0:0:
308,284,27049,1,0,1:0:0:0:
224,200,27278,1,0,0:0:0:0:
400,108,27507,6,0,P|472:176|448:268,1,200,0|0,0:0|1:0,0:0:0:0:
356,340,28194,1,2,0:0:0:0:
236,332,28423,1,0,0:0:0:0:
124,292,28652,1,0,0:0:0:0:
56,192,28881,2,0,P|40:144|56:100,1,100,0|2,1:0|0:0,0:0:0:0:
224,40,29339,6,0,L|376:36,1,150
464,192,30026,2,0,P|376:240|284:216,1,200
196,136,30713,1,0,0:0:0:0:
308,92,30942,1,0,0:0:0:0:
256,284,31171,5,4,0:0:0:0:
136,304,31400,1,2,0:0:0:0:
112,300,31515,1,0,0:0:0:0:
88,296,31629,1,0,1:0:0:0:
28,192,31858,1,0,0:0:0:0:
84,84,32088,2,0,P|128:64|180:76,1,100,0|2,0:0|0:0,0:0:0:0:
248,192,32546,2,0,P|204:212|152:200,1,100,0|0,1:0|0:0,0:0:0:0:
316,84,33004,5,0,0:0:0:0:
420,140,33233,1,2,0:0:0:0:
432,160,33347,1,0,0:0:0:0:
444,180,33462,1,0,1:0:0:0:
460,300,33691,1,0,0:0:0:0:
340,312,33920,2,0,L|244:340,1,100,0|2,0:0|0:0,0:0:0:0:
152,232,34378,2,0,L|248:204,1,100,0|0,1:0|0:0,0:0:0:0:
356,36,34836,5,0,0:0:0:0:
236,52,35065,1,2,0:0:0:0:
212,56,35179,1,0,0:0:0:0:
188,60,35294,1,0,1:0:0:0:
80,112,35523,1,0,0:0:0:0:
32,224,35752,2,0,P|44:277|80:302,1,100,0|2,0:0|0:0,0:0:0:0:
212,256,36210,2,0,P|199:202|163:177,1,100,0|0,1:0|0:0,0:0:0:0:
256,332,36668,6,0,P|308:344|356:340,1,100,0|2,0:0|0:0,0:0:0:0:
468,304,37126,1,0,1:0:0:0:
484,184,37355,1,0,0:0:0:0:
364,168,37584,1,0,0:0:0:0:
348,288,37813,5,2,0:0:0:0:
256,156,38042,1,0,1:0:0:0:
164,288,38271,1,0,0:0:0:0:
12,192,38500,5,0,0:0:0:0:
128,164,38729,1,2,0:0:0:0:
188,60,38958,1,0,1:0:0:0:
68,60,39187,1,0,0:0:0:0:
128,164,39416,2,0,P|164:200|160:248,1,100,0|2,0:0|0:0,0:0:0:0:
48,328,39874,2,0,P|12:292|16:244,1,100,0|0,1:0|0:0,0:0:0:0:
204,308,40332,5,0,0:0:0:0:
228,312,40446,1,0,0:0:0:0:
252,316,40561,1,2,0:0:0:0:
368,340,40790,1,0,1:0:0:0:
480,296,41019,1,0,0:0:0:0:
384,224,41248,2,0,L|284:204,1,100,0|2,0:0|0:0,0:0:0:0:
248,68,41706,2,0,L|348:88,1,100,0|0,1:0|0:0,0:0:0:0:
180,156,42164,5,0,0:0:0:0:
156,164,42278,1,0,0:0:0:0:
132,172,42393,1,2,0:0:0:0:
108,180,42507,1,0,0:0:0:0:
84,192,42622,1,0,1:0:0:0:
64,204,42736,1,0,0:0:0:0:
44,220,42851,1,2,0:0:0:0:
24,236,42965,1,0,0:0:0:0:
8,256,43080,2,0,P|56:340|140:296,1,200,0|0,0:0|1:0,0:0:0:0:
256,192,43996,12,0,45370,0:0:0:0:
392,40,45828,6,0,P|428:80|424:128,1,100,4|2,0:0|0:0,0:0:0:0:
344,212,46286,1,0,1:0:0:0:
224,192,46515,1,0,0:0:0:0:
132,268,46744,2,0,P|131:316|166:351,1,100,0|2,0:0|0:0,0:0:0:0:
284,376,47202,1,0,1:0:0:0:
276,256,47431,1,0,0:0:0:0:
168,112,47660,6,0,L|64:96,1,100,0|2,0:0|0:0,0:0:0:0:
0,220,48118,2,0,L|104:236,1,100,0|0,1:0|0:0,0:0:0:0:
144,368,48576,2,0,L|40:352,1,100,0|2,0:0|0:0,0:0:0:0:
148,292,49034,1,0,1:0:0:0:
256,340,49263,1,0,0:0:0:0:
424,276,49492,6,0,P|468:192|424:104,1,200,0|0,0:0|1:0,0:0:0:0:
316,56,50179,1,0,0:0:0:0:
220,128,50408,2,0,P|134:171|48:127,1,200,0|0,0:0|1:0,0:0:0:0:
88,12,51095,1,0,0:0:0:0:
8,196,51324,5,0,0:0:0:0:
108,264,51553,1,2,0:0:0:0:
220,224,51782,2,0,P|268:212|316:224,1,100,0|0,1:0|0:0,0:0:0:0:
384,324,52240,2,0,P|432:336|480:324,1,100,0|2,0:0|0:0,0:0:0:0:
492,204,52698,5,0,1:0:0:0:
116,64,53156,2,0,L|68:152,1,100,0|2,0:0|0:0,0:0:0:0:
64,272,53614,1,0,1:0:0:0:
176,312,53843,1,0,0:0:0:0:
292,348,54072,2,0,L|340:260,1,100,0|2,0:0|0:0,0:0:0:0:
296,148,54530,1,0,1:0:0:0:
176,164,54759,1,0,0:0:0:0:
104,340,54988,6,0,L|204:356,1,100,0|2,0:0|0:0,0:0:0:0:
252,244,55446,2,0,L|352:260,1,100,0|0,1:0|0:0,0:0:0:0:
468,292,55904,1,0,0:0:0:0:
504,176,56133,1,2,0:0:0:0:
424,84,56362,2,0,P|332:48|236:76,1,200,0|0,1:0|0:0,0:0:0:0:
84,172,57049,5,0,0:0:0:0:
84,172,57164,1,0,0:0:0:0:
84,172,57278,1,0,1:0:0:0:
184,324,57507,1,2,0:0:0:0:
292,272,57736,2,0,P|388:240|480:276,1,200,0|0,0:0|1:0,0:0:0:0:
348,72,58652,5,0,0:0:0:0:
172,116,58881,1,0,0:0:0:0:
172,116,58996,1,0,0:0:0:0:
172,116,59110,1,0,1:0:0:0:
308,232,59339,1,2,0:0:0:0:
256,340,59568,2,0,P|160:360|60:340,2,200,0|0|4,0:0|1:0|0:0,0:0:0:0:
256,192,73309,12,8,74683,0:0:0:0:
44,92,75141,5,4,0:0:0:0:
156,44,75370,1,2,0:0:0:0:
276,28,75599,2,0,P|324:20|376:28,1,100,0|0,1:0|0:0,0:0:0:0:
464,108,76057,2,0,P|472:156|464:208,1,100,0|2,0:0|0:0,0:0:0:0:
360,264,76515,2,0,P|268:231|232:141,1,200,8|0,1:0|0:0,0:0:0:0:
404,84,77202,5,2,0:0:0:0:
472,184,77431,1,0,1:0:0:0:
443,300,77660,2,0,P|411:341|364:354,1,100
283,241,78118,2,0,P|314:199|361:186,1,100,2|0,0:0|1:0,0:0:0:0:
443,300,78576,1,0,0:0:0:0:
268,332,78805,5,0,0:0:0:0:
148,336,79034,1,2,0:0:0:0:
48,268,79263,2,0,P|24:216|32:176,1,100,0|0,1:0|0:0,0:0:0:0:
128,100,79721,2,0,P|185:105|215:132,1,100,0|2,0:0|0:0,0:0:0:0:
264,244,80179,2,0,P|229:331|135:330,1,200,8|0,1:0|0:0,0:0:0:0:
56,168,80866,5,2,0:0:0:0:
72,48,81095,1,0,1:0:0:0:
192,60,81324,2,0,L|296:40,1,100
312,160,81782,2,0,L|416:140,1,100,2|0,0:0|1:0,0:0:0:0:
492,228,82240,1,0,0:0:0:0:
336,320,82469,5,0,0:0:0:0:
216,336,82698,1,2,0:0:0:0:
104,292,82927,2,0,P|72:252|76:204,2,100,0|0|0,1:0|0:0|0:0,0:0:0:0:
192,212,83614,1,2,0:0:0:0:
257,114,83843,2,0,P|216:87|168:96,1,100,8|0,1:0|0:0,0:0:0:0:
256,252,84301,5,0,0:0:0:0:
356,320,84530,1,2,0:0:0:0:
464,268,84759,2,0,L|496:172,1,100,0|0,1:0|0:0,0:0:0:0:
384,92,85217,2,0,L|352:188,1,100,0|2,0:0|0:0,0:0:0:0:
212,180,85675,2,0,L|244:84,1,100,0|0,1:0|0:0,0:0:0:0:
68,48,86133,5,0,0:0:0:0:
16,156,86362,1,2,0:0:0:0:
12,180,86477,1,0,0:0:0:0:
8,204,86591,1,0,1:0:0:0:
40,320,86820,1,0,0:0:0:0:
148,268,87049,2,0,P|196:256|240:276,1,100,0|2,0:0|0:0,0:0:0:0:
328,356,87507,2,0,P|372:376|420:364,1,100,8|0,1:0|0:0,0:0:0:0:
488,196,87965,5,0,0:0:0:0:
424,96,88194,1,2,0:0:0:0:
312,48,88423,2,0,P|264:36|216:48,1,100,0|0,1:0|0:0,0:0:0:0:
164,156,88881,2,0,P|177:203|212:239,1,100,0|2,0:0|0:0,0:0:0:0:
328,212,89339,1,0,0:0:0:0:
340,188,89454,1,0,0:0:0:0:
348,164,89568,1,0,0:0:0:0:
188,40,89797,6,0,P|140:28|92:40,1,100,4|2,0:0|0:0,0:0:0:0:
72,56,90141,1,0,0:0:0:0:
56,72,90255,1,0,1:0:0:0:
28,188,90484,1,0,0:0:0:0:
140,232,90713,2,0,P|184:252|204:300,1,100,0|2,0:0|0:0,0:0:0:0:
96,344,91171,2,0,P|52:324|32:276,1,100,0|0,1:0|0:0,0:0:0:0:
176,136,91629,6,0,P|224:124|272:136,1,100,0|2,0:0|0:0,0:0:0:0:
288,152,91973,1,0,0:0:0:0:
304,172,92088,1,0,1:0:0:0:
368,272,92317,1,0,0:0:0:0:
468,204,92546,2,0,P|504:164|500:116,1,100,0|2,0:0|0:0,0:0:0:0:
412,44,93004,2,0,P|376:84|380:132,1,100,0|0,1:0|0:0,0:0:0:0:
392,148,93347,5,0,0:0:0:0:
404,172,93462,1,2,0:0:0:0:
412,196,93576,1,0,0:0:0:0:
416,220,93691,1,2,0:0:0:0:
416,244,93805,1,0,0:0:0:0:
416,268,93920,1,0,1:0:0:0:
412,292,94034,1,0,0:0:0:0:
404,316,94149,1,2,0:0:0:0:
284,328,94378,2,0,L|184:336,1,100,0|2,0:0|0:0,0:0:0:0:
116,216,94836,2,0,L|216:208,1,100,0|0,1:0|0:0,0:0:0:0:
344,56,95294,5,0,0:0:0:0:
224,36,95523,2,0,P|152:32|124:52,1,100,2|0,0:0|1:0,0:0:0:0:
56,140,95981,1,0,0:0:0:0:
52,260,96210,2,0,L|128:328,1,100,0|2,0:0|0:0,0:0:0:0:
256,224,96668,1,0,1:0:0:0:
385,326,96897,2,0,L|460:260,1,100
472,240,97240,5,0,0:0:0:0:
484,216,97355,1,2,0:0:0:0:
492,192,97469,1,0,0:0:0:0:
496,168,97584,1,0,1:0:0:0:
428,72,97813,1,0,0:0:0:0:
312,40,98042,2,0,P|256:32|220:56,1,100,0|2,0:0|0:0,0:0:0:0:
216,176,98500,2,0,P|272:184|308:160,1,100,0|0,1:0|0:0,0:0:0:0:
324,144,98843,1,0,0:0:0:0:
340,124,98958,5,0,0:0:0:0:
372,240,99187,1,2,0:0:0:0:
440,140,99416,1,0,1:0:0:0:
472,256,99645,1,0,0:0:0:0:
384,340,99874,2,0,L|280:356,1,100,0|2,0:0|0:0,0:0:0:0:
268,236,100332,2,0,L|164:252,1,100,0|0,1:0|0:0,0:0:0:0:
68,104,100790,5,0,0:0:0:0:
172,44,101019,1,2,0:0:0:0:
172,164,101248,1,0,1:0:0:0:
68,104,101477,1,0,0:0:0:0:
16,212,101706,2,0,P|7:263|31:300,1,100,0|2,0:0|0:0,0:0:0:0:
152,316,102164,2,0,P|160:264|136:227,1,100,0|0,1:0|0:0,0:0:0:0:
256,68,102622,5,0,0:0:0:0:
340,152,102851,1,2,0:0:0:0:
256,236,103080,1,0,0:0:0:0:
172,152,103309,1,0,0:0:0:0:
256,68,103538,2,0,P|302:153|257:236,1,200,0|0,0:0|0:0,0:0:0:0:
28,316,104454,6,0,P|124:340|220:316,1,200,4|0,0:0|1:0,0:0:0:0:
256,192,105141,1,2,0:0:0:0:
291,68,105370,2,0,P|387:44|484:68,1,200,0|0,0:0|1:0,0:0:0:0:
500,188,106057,1,2,0:0:0:0:
324,232,106286,6,0,P|304:276|324:320,1,100,0|2,0:0|0:0,0:0:0:0:
428,376,106744,2,0,P|476:371|504:332,1,100,0|0,1:0|0:0,0:0:0:0:
500,212,107202,2,0,P|471:172|423:168,1,100,0|2,0:0|0:0,0:0:0:0:
324,232,107660,1,0,1:0:0:0:
428,292,107889,1,0,0:0:0:0:
344,132,108118,6,0,P|256:92|168:132,1,200,0|0,0:0|1:0,0:0:0:0:
100,232,108805,1,2,0:0:0:0:
168,332,109034,2,0,P|256:372|344:332,1,200,0|0,0:0|1:0,0:0:0:0:
412,232,109721,1,2,0:0:0:0:
372,56,109950,6,0,P|328:32|280:40,1,100,0|2,0:0|0:0,0:0:0:0:
188,116,110408,2,0,P|136:124|96:96,1,100,0|0,1:0|0:0,0:0:0:0:
196,32,110866,2,0,P|272:92|240:180,1,200,0|0,0:0|1:0,0:0:0:0:
424,336,111782,6,0,P|480:244|448:160,1,200,0|0,0:0|1:0,0:0:0:0:
340,120,112469,1,2,0:0:0:0:
220,116,112698,2,0,P|164:208|196:292,1,200,0|0,0:0|1:0,0:0:0:0:
300,340,113385,1,2,0:0:0:0:
120,352,113614,6,0,P|84:300|76:248,1,100,0|2,0:0|0:0,0:0:0:0:
136,160,114072,2,0,P|199:154|248:173,1,100,0|0,1:0|0:0,0:0:0:0:
228,284,114530,1,0,0:0:0:0:
120,232,114759,1,2,0:0:0:0:
44,140,114988,2,0,P|112:72|204:96,1,200,0|0,1:0|0:0,0:0:0:0:
356,196,115675,5,0,0:0:0:0:
356,196,115790,1,0,0:0:0:0:
356,196,115904,1,0,1:0:0:0:
228,320,116133,1,2,0:0:0:0:
108,308,116362,2,0,P|60:216|88:124,2,200,0|0|0,0:0|1:0|0:0,0:0:0:0:
256,204,117507,5,0,0:0:0:0:
256,204,117622,1,0,0:0:0:0:
256,204,117736,1,0,1:0:0:0:
124,80,117965,1,2,0:0:0:0:
232,24,118194,2,0,P|332:8|428:24,1,200,0|4,0:0|1:0,0:0:0:0:
108,192,119110,6,0,P|72:232|72:276,2,100,0|2|0,0:0|0:0|1:0,0:0:0:0:
196,276,119797,1,0,0:0:0:0:
280,364,120026,2,0,P|316:324|316:280,1,100,0|2,1:0|0:0,0:0:0:0:
252,180,120484,1,0,1:0:0:0:
292,68,120713,1,0,0:0:0:0:
448,156,120942,6,0,L|496:244,1,100,0|2,1:0|0:0,0:0:0:0:
420,336,121400,1,0,1:0:0:0:
300,316,121629,1,0,0:0:0:0:
192,260,121858,2,0,P|144:248|96:260,2,100,0|2|0,1:0|0:0|1:0,0:0:0:0:
240,372,122546,1,0,0:0:0:0:
328,216,122775,6,0,P|348:168|328:128,1,100,0|2,1:0|0:0,0:0:0:0:
212,92,123233,1,0,1:0:0:0:
104,144,123462,1,0,0:0:0:0:
4,208,123691,2,0,P|-16:256|4:296,1,100,0|2,1:0|0:0,0:0:0:0:
116,344,124149,1,0,1:0:0:0:
156,232,124378,1,0,0:0:0:0:
304,336,124607,6,0,L|404:352,1,100,0|2,1:0|0:0,0:0:0:0:
456,244,125065,2,0,L|356:228,1,100,0|0,1:0|0:0,0:0:0:0:
340,108,125523,2,0,L|440:124,1,100,0|2,1:0|0:0,0:0:0:0:
444,4,125981,1,0,1:0:0:0:
324,20,126210,1,2,0:0:0:0:
300,24,126324,1,0,0:0:0:0:
276,28,126439,6,0,P|228:40|176:36,1,100,0|2,1:0|0:0,0:0:0:0:
72,92,126897,1,0,1:0:0:0:
108,208,127126,1,0,0:0:0:0:
188,120,127355,2,0,P|236:132|288:128,1,100,0|2,1:0|0:0,0:0:0:0:
396,80,127813,1,0,1:0:0:0:
492,148,128042,1,0,0:0:0:0:
400,304,128271,5,0,1:0:0:0:
288,260,128500,1,2,0:0:0:0:
180,308,128729,2,0,P|92:332|72:320,1,100,0|0,1:0|0:0,0:0:0:0:
8,244,129187,2,0,P|31:155|51:144,1,100,0|2,1:0|0:0,0:0:0:0:
148,124,129645,2,0,P|212:188|212:211,1,100,0|0,1:0|0:0,0:0:0:0:
316,336,130103,6,0,P|368:344|416:336,1,100,0|2,1:0|0:0,0:0:0:0:
436,328,130446,1,0,0:0:0:0:
460,316,130561,1,0,1:0:0:0:
488,200,130790,1,0,0:0:0:0:
412,108,131019,2,0,P|352:96|312:108,2,100,0|2|0,1:0|0:0|1:0,0:0:0:0:
364,216,131706,1,0,0:0:0:0:
216,116,131935,6,0,P|164:104|120:116,1,100,0|2,1:0|0:0,0:0:0:0:
104,132,132278,1,0,0:0:0:0:
88,152,132393,1,0,1:0:0:0:
28,256,132622,1,0,0:0:0:0:
120,336,132851,2,0,P|172:348|216:336,1,100,0|2,1:0|0:0,0:0:0:0:
256,224,133309,5,2,0:0:0:0:
256,224,133767,1,4,0:0:0:0:
