osu file format v6

[General]
AudioFilename: This Love.mp3
AudioLeadIn: 0
PreviewTime: -1
Countdown: 1
SampleSet: Soft
StackLeniency: 0.7
Mode: 0
LetterboxInBreaks: 1

[Editor]
DistanceSpacing: 0.800000011920929
BeatDivisor: 4
GridSize: 8

[Metadata]
Title:This Love
Artist:Ke$ha
Creator:Cheri-Pai
Version:Easy
Source:
Tags:Ke$ha, This Love

[Difficulty]
HPDrainRate:2
CircleSize:4
OverallDifficulty:3
SliderMultiplier:1.4
SliderTickRate:1

[Events]
//Background and Video events
Video,0,"This Love.wmv"
//Break Periods
//Storyboard Layer 0 (Background)
//Storyboard Layer 1 (Fail)
//Storyboard Layer 2 (Pass)
//Storyboard Layer 3 (Foreground)
//Storyboard Sound Samples
//Background Colour Transformations
3,100,163,162,255

[TimingPoints]
0,1000,4,2,0,100,1,0
0,-100,4,2,0,100,0,0

[HitObjects]
72,192,8750,1,0
224,120,9500,1,0
304,256,10250,1,0
392,112,11000,1,0
176,144,11750,1,0
416,280,13500,1,0
200,184,14000,1,0
288,136,14500,1,0
184,64,15000,1,0
80,264,15750,1,0
72,144,18250,2,0,B|504:128|504:128|504:128|504:128|504:128|504:128|504:128|504:128|504:128,1,420
448,72,22500,2,0,B|64:120|64:120|64:120|64:120|64:120|64:120|64:120|64:120,1,385
176,240,25750,1,0
328,256,27500,1,0
144,144,28000,1,0
408,104,28750,1,0
128,288,29500,1,0
408,80,32000,1,0
232,104,32500,1,0
384,272,33250,1,0
280,200,34000,1,0
376,152,34500,1,0
192,192,36500,1,0
304,144,37250,1,0
360,272,38000,1,0
232,248,38750,1,0
360,144,41000,1,0
248,144,41500,1,0
136,152,42500,1,0
160,264,43000,1,0
296,256,43750,1,0
448,56,45250,5,0
304,56,45500,1,0
48,88,50500,6,14,B|488:80|472:184|376:240|256:200|168:184|56:176|56:176,1,700
248,192,56250,1,14
448,312,56750,2,14,B|40:312|56:312|56:312|56:312,1,385
424,288,60750,1,14
296,208,62250,1,14
144,312,63500,1,14
448,104,65250,1,14
248,192,67250,1,14
336,256,67750,1,14
200,312,68500,1,14
48,64,73500,1,0
224,72,74000,1,0
440,72,74750,1,0
432,288,75500,1,0
280,304,76000,1,0
112,304,78000,1,0
96,184,78500,1,0
320,192,79250,1,0
464,56,80000,1,0
72,312,80750,1,0
392,304,82500,1,0
360,184,83250,1,0
328,56,84250,5,0
176,192,85000,1,0
416,264,87250,1,0
432,80,88000,1,0
336,184,88750,1,0
312,304,89250,1,0
448,240,90000,1,0
88,128,91250,2,0,B|272:40|304:184|304:184,2,245
416,280,96500,6,14,B|176:304|128:64|48:120|48:120|48:120|48:120|48:120,1,385
448,80,100750,1,14
328,136,101000,1,14
416,296,101750,1,14
192,304,102250,1,14
440,88,104000,1,14
232,88,104750,1,14
256,216,105250,1,14
104,128,107000,1,6
408,136,107750,1,14
360,304,108500,1,14
352,104,110250,1,14
336,192,111000,1,14
264,272,112000,1,14
152,248,113000,1,14
184,168,114000,1,14
264,136,114750,1,14
424,168,116750,1,14
288,256,117500,1,14
312,120,118250,1,14
176,168,118750,1,14
136,296,119500,1,14
416,288,120000,1,8
368,152,120500,1,14
216,136,122250,1,14
352,144,123000,1,14
416,248,124000,5,14
320,256,124750,1,14
200,256,125500,1,14
144,168,126250,1,14
288,144,126750,1,14
232,248,128250,1,14
256,208,130250,12,12,134250
96,104,137500,5,0
440,72,138250,1,0
432,304,139000,1,4
176,320,139750,1,4
296,200,140250,1,0
160,176,141000,1,4
296,296,141500,1,4
432,144,142000,1,4
344,136,144000,1,4
248,136,144500,1,4
136,128,145250,1,4
104,256,147000,1,4
208,288,147250,1,4
320,288,147750,1,0
440,200,148500,1,4
384,88,150000,1,4
272,176,150750,1,4
376,248,151500,1,4
152,232,152250,1,4
464,48,156000,5,4
472,128,157000,1,4
472,224,157750,1,4
472,320,158750,1,4
440,168,160750,1,4
376,272,161250,1,4
256,192,162500,1,4
416,136,163000,1,4
280,104,163750,1,4
216,264,165500,1,4
392,296,166250,1,4
384,128,166750,1,4
224,152,168750,1,4
