osu file format v7

[General]
AudioFilename: kesha - dinosaur.mp3
AudioLeadIn: 0
PreviewTime: 49723
Countdown: 1
SampleSet: Soft
StackLeniency: 0.7
Mode: 0
LetterboxInBreaks: 1

[Editor]
DistanceSpacing: 1.39999997615814
BeatDivisor: 4
GridSize: 8

[Metadata]
Title:Dinosaur
Artist:Ke$ha
Creator:ayey
Version:T-Rex
Source:
Tags:Rasyad95 Kesha Animal

[Difficulty]
HPDrainRate:6
CircleSize:4
OverallDifficulty:8
SliderMultiplier:1.4
SliderTickRate:2

[Events]
//Background and Video events
0,0,"BG.jpg"
//Break Periods
2,19454,22723
2,81329,84598
//Storyboard Layer 0 (Background)
//Storyboard Layer 1 (Fail)
//Storyboard Layer 2 (Pass)
//Storyboard Layer 3 (Foreground)
//Storyboard Sound Samples
//Background Colour Transformations
3,100,163,162,255

[TimingPoints]
4723.66565796114,468.75,4,2,0,70,1,0
51598,-100,4,2,0,70,0,1
66218,-100,4,2,0,70,0,0
113356,-100,4,2,0,70,0,1
128133,-100,4,2,0,70,0,0

[Colours]
Combo1 : 255,128,255
Combo2 : 0,0,128
Combo3 : 64,0,64
Combo4 : 255,0,128

[HitObjects]
232,136,4723,2,0,L|312:136,1,70
464,240,5426,1,0
368,240,5661,1,8
176,240,6129,1,0
80,240,6364,1,8
208,64,6833,5,0
304,64,7067,1,8
256,152,7301,1,8
256,240,7536,1,0
168,288,7770,1,0
80,240,8004,1,8
168,72,8473,6,0,L|272:72,1,70
432,72,9176,1,0
360,136,9411,1,8
168,176,9879,1,0
264,176,10114,1,8
400,312,10583,5,0
304,312,10817,1,8
248,232,11051,1,8
312,152,11286,1,0
248,72,11520,1,0
184,152,11754,1,8
96,328,12223,5,0
96,232,12458,1,0
424,32,12926,5,0
424,128,13161,1,8
96,32,13629,5,0
96,128,13864,1,8
424,336,14333,5,0
424,240,14567,1,0
352,176,14801,1,0
288,104,15036,2,0,L|120:104|120:104,1,140
64,296,15973,5,0
160,296,16208,1,0
232,232,16442,2,8,L|256:192|304:192,2,70
184,152,17145,1,0
88,152,17379,1,8
56,48,18083,5,0
128,120,18317,1,0
200,192,18551,1,0
272,264,18786,2,0,L|320:208|256:136,1,140,0|8
48,192,23473,5,0
48,192,23708,1,8
120,128,23942,1,8
120,128,24176,1,0
192,200,24411,1,8
192,200,24645,1,8
256,272,24879,1,0
256,272,25114,1,8
352,272,25348,5,8
352,272,25583,1,0
416,200,25817,1,8
416,200,26051,1,8
344,128,26286,1,0
248,128,26520,1,8
296,40,26754,1,8
296,240,27223,6,0,L|296:311|232:312|232:256|192:256,1,210
48,168,28395,1,0
112,232,28629,2,0,L|112:304,1,70
136,208,29098,2,0,L|192:144,1,70
248,88,29567,1,0
48,88,30036,1,0
344,120,30739,5,2
144,120,31208,1,2
144,304,31676,1,2
344,304,32145,1,0
280,232,32379,1,0
216,152,32614,1,0
440,152,33083,5,0
344,152,33317,1,0
248,152,33551,1,0
152,152,33786,2,8,B|128:72|88:144|32:144,1,140
152,152,34723,5,0
216,80,34958,1,8
280,152,35192,1,8
216,224,35426,1,0
216,296,35661,5,8
280,224,35895,1,8
216,152,36129,1,8
152,224,36364,1,0
56,224,36598,5,2
56,32,37067,1,2
256,32,37536,1,2
448,32,38004,1,4
304,208,38473,6,0,L|400:208,1,70
176,208,39176,1,0
256,192,39411,12,0,40348
256,192,40583,5,2
256,192,40817,1,2
256,192,41051,1,2
256,192,41286,1,2
184,40,42223,5,0
280,40,42458,1,0
232,120,42692,1,0
184,200,42926,1,8
184,200,43043,1,8
280,200,43278,1,8
280,200,43395,1,8
376,200,43629,1,0
328,280,43864,1,0
136,280,44333,5,0
96,192,44567,1,0
192,160,44801,2,8,B|256:160,1,35
328,160,45153,2,8,B|272:160,1,35
256,72,45504,2,8,B|256:160,1,70
208,224,45973,1,0
304,224,46208,5,0
384,168,46442,1,8
432,168,46559,1,8
432,72,46793,1,0
336,72,47028,1,8
288,72,47145,1,8
248,96,47262,1,8
200,88,47379,1,8
112,136,47614,1,8
168,352,48083,5,0
96,288,48317,1,0
112,136,48668,1,0
192,104,48903,1,8
216,144,49020,1,8
264,128,49137,1,8
296,160,49254,1,8
296,256,49489,1,0
200,288,49723,5,2
152,272,49840,1,0
120,232,49958,1,2
120,182,50075,1,0
144,144,50192,1,0
184,120,50309,1,2
232,127,50426,1,0
264,168,50543,1,0
288,216,50661,5,2
320,256,50778,1,0
368,272,50895,1,0
416,256,51012,1,2
440,216,51129,1,0
440,168,51247,1,0
416,128,51364,1,2
368,112,51481,1,0
320,96,51598,6,0,L|240:96,1,70
56,136,52301,2,0,L|152:136,1,70,0|8
208,320,53004,2,0,L|208:240,1,70,0|8
176,24,53708,5,0
175,118,53942,1,8
176,216,54176,1,8
264,168,54411,1,0
264,72,54645,1,8
352,120,54879,1,8
352,120,55348,6,0,L|256:120,1,70
88,120,56051,2,0,L|168:120,1,70,0|8
160,320,56754,2,0,L|72:320,1,70,0|8
288,320,57458,5,0
376,272,57692,1,8
320,192,57926,1,8
232,144,58161,1,0
136,144,58395,1,8
232,144,58629,1,8
248,344,59098,5,0
248,248,59333,1,0
440,192,59801,2,0,L|352:192,1,70,0|8
144,192,60504,1,0
48,192,60739,1,8
160,32,61208,5,0
240,88,61442,1,0
320,24,61676,1,0
240,88,61911,2,0,B|240:256,1,140
40,232,62848,5,0
80,264,62965,1,0
120,232,63083,1,0
216,232,63317,2,0,L|304:232,3,70
409,232,64254,1,8
408,232,64723,1,4
408,136,64958,5,0
408,40,65192,1,0
312,40,65426,1,0
216,40,65661,1,0
216,40,66129,1,4
256,232,66598,5,0
456,232,67067,2,0,L|368:232,1,70
384,136,67536,1,0
288,136,67770,1,0
288,40,68004,1,0
88,40,68473,6,0,L|88:112,1,70
184,112,68942,2,0,L|184:42,1,70
384,40,69645,1,0
480,40,69879,2,0,L|480:144,1,70
480,208,70348,5,0
280,208,70817,2,0,L|192:208,1,70
112,208,71286,1,0
304,272,72223,5,0
208,272,72458,1,0
256,192,72692,1,0
168,168,72926,2,0,B|208:96|304:96|352:184,1,210,0|4
256,48,74098,5,0
256,48,74567,1,0
304,136,74801,1,0
208,136,75036,1,0
224,192,75973,6,0,B|320:192,3,70
440,64,77145,1,0
344,64,77379,2,0,B|256:64,1,70
176,64,77848,5,0
176,64,78317,1,0
176,160,78551,1,0
176,256,78786,1,0
304,112,79723,5,0
208,112,79958,1,0
256,192,80192,1,0
168,216,80426,2,0,B|208:288|304:288|352:200,1,210,0|4
48,200,85348,5,0
48,200,85583,1,8
120,128,85817,1,8
120,128,86051,1,0
192,200,86286,1,8
192,200,86520,1,8
256,272,86754,1,0
256,272,86989,1,8
352,272,87223,5,8
352,272,87458,1,0
416,192,87692,1,0
416,192,87926,1,8
344,128,88161,1,8
248,128,88395,1,0
152,128,88629,1,4
56,304,89098,5,2
160,304,89333,1,2
256,304,89567,1,2
352,304,89801,1,2
192,192,90270,5,0
56,40,90739,1,0
256,40,91208,1,0
352,40,91442,1,0
424,104,91676,1,0
352,168,91911,1,0
184,272,92379,1,8
88,104,92848,5,0
168,48,93083,1,0
168,144,93317,1,8
256,96,93551,1,0
336,144,93786,1,0
336,48,94020,1,8
416,104,94254,1,0
416,104,94489,2,0,B|432:208|344:320,1,210
160,304,95661,1,8
352,304,96129,1,8
256,192,96598,5,2
256,192,96715,1,2
152,128,97301,1,0
152,128,97536,2,0,B|40:128|112:216|168:288,2,210
344,256,99411,2,0,B|408:224|392:160|336:120,1,140
192,40,100348,5,0
192,184,100700,1,0
192,328,101051,1,0
432,192,101520,5,8
432,192,101989,1,4
72,112,102458,5,8
144,176,102692,1,0
224,240,102926,1,8
296,304,103161,1,8
296,112,103629,1,4
296,112,104098,5,0
392,112,104333,1,0
488,112,104567,1,0
480,208,104801,1,8
480,208,104918,1,8
480,304,105153,1,8
480,304,105270,1,8
384,304,105504,2,0,B|312:304,1,70
312,208,105973,5,0
216,208,106208,1,8
216,160,106325,1,8
216,112,106442,1,8
312,112,106676,1,8
312,112,106793,1,8
408,112,107028,1,0
408,112,107145,6,0,B|408:200,1,70
408,280,107614,1,0
312,280,107848,5,0
312,280,108083,2,0,B|208:280,1,70
256,192,109723,5,8
256,192,109958,1,8
256,192,110192,1,8
400,192,110543,5,0
400,96,110778,1,8
370,56,110895,1,8
320,56,111012,1,8
288,93,111129,1,8
256,192,111364,1,0
256,192,111598,12,0,113239
344,104,113473,6,0,L|280:168,1,70
168,104,114176,2,0,L|232:168,1,70,0|8
256,296,114879,2,0,L|256:216,1,70,0|8
440,304,115583,5,0
440,208,115817,1,8
440,112,116051,1,8
352,152,116286,1,0
352,248,116520,1,8
264,208,116754,1,8
264,208,117223,6,0,L|264:296,1,70
272,80,117926,1,0
360,80,118161,1,8
168,80,118629,2,0,L|98:80,1,70,0|8
256,192,119333,5,0
344,152,119567,1,8
344,248,119801,1,8
344,152,120036,1,0
344,248,120270,1,8
432,192,120504,1,8
256,192,120973,5,0
256,288,121208,1,0
256,96,121676,2,0,L|256:16,1,70,0|8
126,32,122379,2,8,B|56:32,1,70
56,232,123083,5,0
96,320,123317,1,0
152,232,123551,1,0
248,232,123786,2,0,B|312:216|304:280|368:248|408:248,1,140
376,56,124723,5,0
328,40,124840,1,0
280,56,124958,1,0
184,56,125192,2,0,L|136:128,1,70
112,208,125661,2,0,B|208:208,1,70
280,208,126129,1,4
472,40,126833,5,0
400,112,127067,1,0
328,176,127301,1,0
248,240,127536,1,8
248,240,128004,1,4
48,240,128473,5,0
48,40,128942,1,0
144,40,129176,1,0
240,40,129411,1,0
336,40,129645,1,8
432,40,129879,1,8
256,120,130348,6,0,L|256:192,1,70
256,288,130817,2,0,L|256:192,1,70
408,96,131520,1,0
408,192,131754,1,0
408,288,131989,1,0
408,192,132223,5,0
208,192,132692,2,0,L|120:192,1,70
40,192,133161,1,4
456,336,134098,5,0
392,264,134333,1,0
320,200,134567,1,0
256,128,134801,2,0,B|296:56|392:56|440:144,1,210,0|4
456,336,135973,5,0
456,336,136442,1,0
360,336,136676,1,0
264,336,136911,1,0
264,336,137848,6,0,B|264:232,1,70
264,168,138317,1,0
264,72,138551,1,0
464,72,139020,1,0
464,168,139254,2,0,B|384:168|384:168,1,70
264,168,139723,5,0
264,168,140192,1,0
264,264,140426,1,0
168,264,140661,1,0
56,48,141598,5,0
120,120,141833,1,0
192,184,142067,1,0
256,256,142301,2,0,B|216:328|120:328|72:240,1,210,0|4
56,48,143473,5,0
256,48,143942,1,0
256,144,144176,1,0
344,104,144411,1,0
440,104,144645,1,8
440,104,144879,1,8
440,304,145348,5,0
344,304,145583,1,0
248,304,145817,2,0,B|168:304,1,70
248,120,146520,1,0
152,120,146754,2,0,B|152:224,1,70
80,120,147223,5,0
80,320,147692,1,0
176,320,147926,1,0
272,320,148161,1,0
40,112,149098,5,0
136,120,149333,1,0
80,200,149567,1,0
168,240,149801,2,0,B|240:192|256:312|320:216|256:144,1,210,0|4
432,64,150973,5,0
240,64,151442,1,0
320,128,151676,1,0
400,192,151911,1,0
320,240,152145,1,8
240,288,152379,1,8
40,288,152848,5,0
40,192,153083,1,0
40,96,153317,1,0
136,96,153551,1,0
136,288,154020,1,0
208,192,154254,2,0,B|128:192|128:192,1,70
136,288,154723,5,0
336,288,155192,1,0
384,208,155426,1,0
336,120,155661,1,0
336,120,156598,5,0
240,120,156833,1,0
144,120,157067,1,0
136,216,157301,2,0,L|88:280|152:344|216:344,1,210,0|4
384,344,158473,6,0,B|376:296|336:272,1,70
168,344,159176,2,0,B|176:296|232:272,1,70,0|8
280,104,159879,2,0,B|280:176|280:176,1,70,0|8
464,104,160583,1,0
464,200,160817,1,8
464,296,161051,1,8
384,232,161286,1,0
384,136,161520,1,8
304,192,161754,1,8
104,192,162223,5,0
104,96,162458,1,0
104,288,162926,5,0
104,192,163161,1,8
296,192,163629,5,0
200,192,163864,1,8
104,192,164098,5,0
200,192,164333,1,0
296,192,164567,1,0
296,96,164801,2,0,B|352:16|376:80|432:56|432:176,1,210,0|4
432,352,165973,5,0
336,352,166208,1,0
440,184,166676,2,0,B|440:112,1,70,0|8
256,192,167379,1,0
160,192,167614,1,8
160,192,168083,5,0
64,192,168317,1,8
64,288,168551,1,8
160,288,168786,1,0
256,288,169020,1,8
256,192,169254,1,8
400,64,169723,6,0,B|464:80|456:136,1,70
256,192,170426,1,0
256,192,170661,1,8
112,320,171129,2,0,B|48:304|56:248,1,70,0|8
104,192,171598,5,0
104,96,171833,1,0
192,144,172067,1,0
288,144,172301,2,0,B|376:104|392:192|280:256|432:264,1,210,0|4
