osu file format v7

[General]
AudioFilename: kesha - dinosaur.mp3
AudioLeadIn: 0
PreviewTime: 49723
Countdown: 1
SampleSet: Soft
StackLeniency: 0.7
Mode: 0
LetterboxInBreaks: 1

[Editor]
DistanceSpacing: 0.800000011920929
BeatDivisor: 2
GridSize: 8

[Metadata]
Title:Dinosaur
Artist:Ke$ha
Creator:ayey
Version:Baby Dino
Source:
Tags:Rasyad95 Kesha Animal

[Difficulty]
HPDrainRate:4
CircleSize:3
OverallDifficulty:4
SliderMultiplier:1.4
SliderTickRate:2

[Events]
//Background and Video events
0,0,"BG.jpg"
//Break Periods
2,19454,22153
2,81329,84028
//Storyboard Layer 0 (Background)
//Storyboard Layer 1 (Fail)
//Storyboard Layer 2 (Pass)
//Storyboard Layer 3 (Foreground)
//Storyboard Sound Samples
//Background Colour Transformations
3,100,163,162,255

[TimingPoints]
4723.66565796114,468.75,4,2,0,70,1,0
51598,-100,4,2,0,70,0,1
66218,-100,4,2,0,70,0,0
113473,-100,4,2,0,70,0,1
128133,-100,4,2,0,70,0,0

[Colours]
Combo1 : 255,128,255
Combo2 : 0,0,128
Combo3 : 64,0,64
Combo4 : 255,0,128

[HitObjects]
64,64,4723,2,8,B|112:160|176:128|240:160|304:32,1,280,8|8
456,64,6364,1,8
288,64,7067,1,8
376,136,7536,1,8
376,248,8004,1,8
288,320,8473,5,0
232,320,8708,1,0
232,208,9176,1,0
176,208,9411,1,0
104,120,9879,2,8,B|40:56,1,70
168,48,10583,1,8
224,48,10817,1,8
336,48,11286,2,0,B|224:160,1,140,0|4
160,256,12223,5,2
224,256,12458,1,0
336,256,12926,1,0
400,256,13161,1,2
400,144,13629,1,2
336,144,13864,1,2
176,144,14567,1,8
176,256,15036,2,0,B|221:225|269:305|221:337,1,140,0|4
336,336,15973,5,0
336,176,16676,1,0
176,176,17379,1,0
400,176,18317,1,2
288,176,18786,2,4,B|256:112|176:80|176:80,1,140
48,192,23473,5,8
192,192,24411,1,8
336,192,25348,1,8
128,96,26286,2,8,L|288:96,1,140
320,192,27223,6,0,B|320:264|368:328|424:328|480:296,1,210,0|4
448,64,29098,1,2
224,64,30036,1,2
96,160,30739,2,2,B|208:256|272:96|416:272,1,350
416,96,32614,1,2
144,96,33786,1,2
144,208,34254,1,8
256,208,34723,5,2
448,96,35661,1,2
224,96,36598,1,8
112,96,37067,1,8
112,208,37536,1,8
320,112,38473,6,8,B|320:48|384:0|456:56|448:128,1,210
448,272,39879,1,8
272,272,40583,1,8
160,272,41051,1,8
160,272,41286,1,8
320,64,42223,5,4
160,64,42926,1,0
160,224,43629,2,4,B|240:224,1,70
400,224,44567,1,4
400,112,45036,1,0
288,112,45504,1,0
256,224,45973,6,0,B|396:224,2,140
256,112,47379,1,0
96,128,48083,6,8,B|96:72|144:56,1,70
192,224,49020,2,8,L|80:320,1,140
256,192,49723,12,0,51129
48,224,51598,6,8,B|40:160|88:136,1,70
208,64,52536,1,8
368,64,53239,1,8
288,208,53942,1,8
424,208,54411,2,0,B|480:249|384:305|432:337,1,140,0|4
424,208,55348,5,8
272,96,56051,1,8
272,256,56754,1,8
464,176,57692,1,8
464,176,58161,2,8,B|400:96|352:96,1,140
256,192,59098,5,8
128,288,59801,2,8,B|128:64,1,210
352,72,61442,1,8
464,72,61911,1,8
408,168,62379,1,8
344,256,62848,6,0,L|128:256,2,210
256,128,64958,1,2
256,128,65192,1,0
144,128,65661,1,8
144,240,66129,1,8
256,240,66598,5,2
256,32,67536,1,2
256,240,68473,5,2
48,192,69411,1,2
160,192,69879,1,8
272,192,70348,5,2
384,192,70817,2,8,B|454:192,4,70,0|8|0|8|4
272,192,72223,5,8
272,192,72458,1,8
272,192,72692,1,8
272,192,72926,1,8
272,32,73629,1,4
192,112,74098,5,8
416,112,75036,1,8
416,336,75973,1,8
256,336,76676,1,0
96,336,77379,1,8
96,224,77848,5,8
320,224,78786,1,0
96,224,79723,1,8
224,112,80426,1,8
224,112,81129,1,4
64,64,85348,5,8
256,192,86286,1,8
432,320,87223,1,8
256,160,88161,2,0,L|256:240,2,70,0|8|0
288,48,89098,6,0,L|208:48,3,70,0|8|0|8
224,160,90270,1,8
112,160,90739,1,0
112,272,91208,2,0,L|112:160|184:160|232:160|232:264|232:280,1,350
384,280,92848,6,2,L|384:72,1,140
384,48,93786,1,8
272,48,94254,1,0
160,48,94723,6,2,L|32:128,1,140
128,192,95661,2,0,L|208:192,2,70,0|8|0
128,304,96598,6,2,L|224:304,1,70,0|2
272,240,97301,2,2,L|384:144,2,140
272,240,99411,2,0,L|176:240,2,70,0|8|0
384,240,100348,5,8
384,80,101051,1,8
272,80,101520,5,2
160,80,101989,1,4
48,80,102458,5,2
48,192,102926,1,2
48,192,103161,1,2
160,192,103629,1,4
272,192,104098,5,0
432,208,104801,2,2,L|432:304,1,70
432,160,105504,2,2,L|432:80,1,70
432,32,105973,5,0
320,32,106442,1,8
208,32,106911,1,8
96,32,107379,1,0
96,32,107614,1,0
96,32,108083,5,8
96,32,108317,1,8
96,160,108786,5,0
96,160,109020,1,0
96,160,109254,1,0
96,160,109489,1,0
96,160,109723,6,0,L|176:160,3,70
96,256,110895,2,0,L|96:336,3,70
256,192,112067,12,0,113708
400,184,114176,6,2,L|456:142,1,70
472,256,114879,2,2,L|416:298,1,70
248,296,115817,5,8
136,296,116286,1,8
136,184,116754,1,8
136,72,117223,6,2,L|232:72,1,70
320,72,117926,2,2,L|416:72,1,70
392,184,118629,1,8
392,184,118864,1,8
392,352,119567,5,8
312,280,120036,1,8
232,200,120504,1,8
192,304,120973,6,2,L|96:192|208:96,1,280
312,104,122379,1,2
312,104,122614,1,2
312,272,123317,5,8
200,272,123786,1,8
256,176,124254,1,8
352,112,124723,6,2,L|352:256,1,140
440,184,125661,1,2
440,184,126129,1,4
272,184,126833,5,2
216,184,127067,1,2
160,184,127301,1,2
104,184,127536,2,4,L|104:40,1,140,2|4
