osu file format v12

[General]
AudioFilename: Ke$ha - Die Young (Official)(1).mp3
AudioLeadIn: 0
PreviewTime: 37743
Countdown: 1
SampleSet: None
StackLeniency: 0.9
Mode: 0
LetterboxInBreaks: 1
WidescreenStoryboard: 0

[Editor]
Bookmarks: 37743,52741,112731,127729,179752,195218
DistanceSpacing: 0.7
BeatDivisor: 1
GridSize: 4

[Metadata]
Title:Die Young
TitleUnicode:Die Young
Artist:Ke$ha
ArtistUnicode:Ke$ha
Creator:Thor
Version:Normal
Source:
Tags:Doomsday Ke$ha Thor Mahiro Yasaka
BeatmapID:337617
BeatmapSetID:134625

[Difficulty]
HPDrainRate:5
CircleSize:3
OverallDifficulty:2
ApproachRate:4
SliderMultiplier:1.79999990463257
SliderTickRate:2

[Events]
//Background and Video events
0,0,"Ke$ha-Die Young-SongsHeartland-2012-11-25-18h54m57s135.jpg",0,0
//Break Periods
2,16399,17691
2,82024,100191
2,135461,141441
2,157493,163941
2,173898,175191
//Storyboard Layer 0 (Background)
//Storyboard Layer 1 (Fail)
//Storyboard Layer 2 (Pass)
//Storyboard Layer 3 (Foreground)
//Storyboard Sound Samples
//Background Colour Transformations
3,100,163,162,255

[TimingPoints]
5886,468.75,3,3,0,80,1,0
37761,-100,3,3,0,100,0,1
52761,-100,3,3,0,80,0,0
112761,-100,3,3,0,100,0,1
127761,-100,3,3,0,80,0,0
180261,-100,3,3,0,100,0,1
195261,-100,3,3,0,80,0,0

[HitObjects]
152,72,7761,1,4,0:0:0:0:
152,224,8230,1,0,0:0:0:0:
280,144,8699,1,4,0:0:0:0:
280,312,9168,2,4,B|280:256|312:256|312:256|312:224|344:224|344:224|344:192|384:192,1,179.999990463257
256,48,10105,1,4,0:0:0:0:
136,104,10574,6,4,B|120:168|160:192|160:192|160:296,1,179.999990463257
312,216,11511,1,0,0:0:0:0:
312,96,11980,1,4,0:0:0:0:
212,264,12449,1,0,0:0:0:0:
410,264,12918,1,4,0:0:0:0:
408,144,13386,5,0,0:0:0:0:
320,136,13855,2,4,P|320:192|448:224,1,179.999990463257
344,316,14793,2,4,P|168:316|240:44,1,539.999971389771
232,72,19011,6,0,B|232:124|264:124|264:124|264:244,1,179.999990463257
120,304,19949,5,0,0:0:0:0:
272,304,20418,1,4,0:0:0:0:
416,304,20886,1,0,0:0:0:0:
416,184,21355,2,4,P|416:128|280:88,2,179.999990463257
160,248,22761,6,0,L|48:80,1,179.999990463257
272,128,23699,2,4,L|464:128,1,179.999990463257
376,240,24636,2,0,B|376:296|376:296|240:296,1,179.999990463257
168,160,25574,5,4,0:0:0:0:
256,64,26043,1,0,0:0:0:0:
344,160,26511,1,4,0:0:0:0:
312,280,26980,1,0,0:0:0:0:
208,280,27449,1,4,0:0:0:0:
104,120,27918,6,0,L|104:312,1,179.999990463257
216,200,28855,2,4,P|272:200|328:80,1,179.999990463257
248,120,29793,2,0,L|384:280,1,179.999990463257
232,312,30730,1,4,0:0:0:0:
112,248,31199,5,0,0:0:0:0:
112,112,31668,1,4,0:0:0:0:
232,48,32136,1,0,0:0:0:0:
232,184,32605,1,4,0:0:0:0:
360,184,33074,1,0,0:0:0:0:
256,192,33542,12,0,37292,0:0:0:0:
96,256,37761,6,4,P|152:120|426:256,1,539.999971389771
328,312,39636,1,0,0:0:0:0:
208,312,40105,1,4,0:0:0:0:
266,208,40574,1,0,0:0:0:0:
409,223,41043,2,4,P|329:55|121:231,1,539.999971389771
152,320,42918,2,0,P|208:272|192:160,1,179.999990463257
200,88,43855,6,4,L|424:88,1,179.999990463257
383,192,44793,1,0,0:0:0:0:
383,240,45261,1,4,0:0:0:0:
256,320,45730,6,0,B|256:240|256:240|216:240|216:240|216:152,1,179.999990463257
224,80,46668,2,4,B|240:80|240:80|240:64|240:64|256:64|256:64|256:80|256:80|272:80|272:80|272:64|272:64|288:64|288:64|288:80|304:80|304:64|320:64|320:80|336:80|336:64|352:64|352:80|368:80|368:64|384:64,1,179.999990463257
328,192,47605,1,0,0:0:0:0:
232,192,48074,1,4,0:0:0:0:
88,80,49011,6,0,P|88:192|200:248,1,179.999990463257
208,160,49949,1,4,0:0:0:0:
328,88,50418,1,0,0:0:0:0:
400,216,50886,1,4,0:0:0:0:
368,336,51355,5,0,0:0:0:0:
256,336,51824,2,4,L|56:336,1,179.999990463257
256,64,52761,5,0,0:0:0:0:
136,240,53230,1,4,0:0:0:0:
256,64,53699,1,0,0:0:0:0:
384,240,54168,1,4,0:0:0:0:
256,64,54636,1,0,0:0:0:0:
256,240,55105,1,4,0:0:0:0:
256,64,55574,1,0,0:0:0:0:
256,64,56043,2,4,P|176:56|288:304,1,539.999971389771
400,248,57918,5,0,0:0:0:0:
400,104,58386,1,4,0:0:0:0:
296,104,58855,2,4,B|224:104|176:104|112:184,2,179.999990463257
296,256,60261,1,0,0:0:0:0:
213,338,60730,2,4,P|165:338|125:202,3,179.999990463257
160,80,62605,5,0,0:0:0:0:
256,184,63074,1,4,0:0:0:0:
256,80,63543,1,0,0:0:0:0:
352,184,64011,1,4,0:0:0:0:
352,80,64480,2,4,B|352:184|352:184|432:264,1,179.999990463257
432,312,65418,6,4,P|256:312|136:160,1,359.999980926514
168,104,66824,2,4,P|346:116|474:252,1,359.999980926514
379,328,68229,5,0,0:0:0:0:
337,208,68698,1,0,0:0:0:0:
256,288,69167,1,0,0:0:0:0:
256,288,69636,5,4,0:0:0:0:
256,160,70105,1,0,0:0:0:0:
360,88,70574,1,4,0:0:0:0:
360,200,71043,1,0,0:0:0:0:
360,320,71511,1,4,0:0:0:0:
271,231,71979,6,0,P|304:168|232:88,1,179.999990463257
160,88,72917,1,0,0:0:0:0:
160,88,73386,6,4,P|160:272|256:272,1,179.999990463257
200,176,74324,2,0,P|200:360|120:352,1,179.999990463257
168,272,75261,2,4,L|400:184,1,179.999990463257
247,119,76198,1,0,0:0:0:0:
127,158,76667,1,0,0:0:0:0:
127,284,77136,5,4,0:0:0:0:
375,284,77605,1,0,0:0:0:0:
285,194,78074,1,4,0:0:0:0:
230,307,78542,1,0,0:0:0:0:
71,292,79011,6,4,P|71:108|351:292,1,719.999961853028
256,288,81355,1,0,0:0:0:0:
184,184,81824,1,4,0:0:0:0:
256,192,101511,12,4,104792,0:0:0:0:
256,80,105261,5,0,0:0:0:0:
272,216,105730,1,4,0:0:0:0:
160,160,106199,1,0,0:0:0:0:
72,240,106668,2,4,P|80:296|224:296,1,179.999990463257
288,312,107605,2,4,L|488:312,1,179.999990463257
352,80,109011,5,0,0:0:0:0:
352,80,109480,1,4,0:0:0:0:
224,88,109949,2,4,B|224:104|176:104|176:168|232:168|232:216|176:240,1,179.999990463257
256,328,110886,5,0,0:0:0:0:
256,328,111355,1,4,0:0:0:0:
336,224,111824,1,0,0:0:0:0:
336,224,112293,5,4,0:0:0:0:
256,112,112761,1,0,0:0:0:0:
256,112,113230,1,4,0:0:0:0:
128,120,113699,6,4,B|256:192|256:192|256:312|256:312|364:312,1,359.999980926514
416,192,115105,1,0,0:0:0:0:
416,56,115574,1,4,0:0:0:0:
256,56,116511,6,4,B|256:120|184:120|184:120|184:176|184:176|112:192|112:272|112:272|24:272,1,359.999980926514
72,144,117918,1,0,0:0:0:0:
128,44,118386,1,4,0:0:0:0:
256,44,118855,2,4,B|344:92|344:92|256:192|256:192|256:344,1,359.999980926514
392,312,120261,5,0,0:0:0:0:
392,312,120730,1,4,0:0:0:0:
312,232,121199,1,0,0:0:0:0:
312,232,121668,1,4,0:0:0:0:
312,128,122136,1,0,0:0:0:0:
312,128,122605,1,4,0:0:0:0:
232,56,123074,2,4,B|176:56|152:112|152:112|64:112,1,179.999990463257
96,264,124011,6,4,P|304:336|448:56,1,539.999971389771
328,104,125886,1,4,0:0:0:0:
192,104,126355,1,0,0:0:0:0:
260,224,126824,1,4,0:0:0:0:
260,44,127293,1,0,0:0:0:0:
260,44,127761,2,4,L|260:242,1,179.999990463257
176,296,128699,5,4,0:0:0:0:
288,296,129168,1,0,0:0:0:0:
176,296,129636,1,4,0:0:0:0:
288,296,130105,2,4,L|288:96,1,179.999990463257
288,116,131043,2,4,L|485:116,1,179.999990463257
456,216,131980,6,4,P|456:304|344:312,1,179.999990463257
394,258,132918,1,0,0:0:0:0:
328,192,133386,1,4,0:0:0:0:
232,192,133855,1,0,0:0:0:0:
144,196,134324,1,4,0:0:0:0:
73,143,134793,2,4,P|73:247|169:279,1,179.999990463257
152,96,142761,5,4,0:0:0:0:
336,96,143230,1,0,0:0:0:0:
152,96,143699,1,4,0:0:0:0:
336,96,144168,5,0,0:0:0:0:
336,256,144636,1,4,0:0:0:0:
336,96,145105,1,0,0:0:0:0:
336,256,145574,5,4,0:0:0:0:
336,96,146043,1,0,0:0:0:0:
192,256,146511,1,4,0:0:0:0:
336,256,146980,5,0,0:0:0:0:
192,256,147449,1,4,0:0:0:0:
336,256,147918,1,0,0:0:0:0:
400,192,148386,2,4,P|400:320|256:280,1,179.999990463257
248,344,149324,1,4,0:0:0:0:
128,344,149793,1,0,0:0:0:0:
184,184,150730,6,4,P|184:152|336:120,1,179.999990463257
264,165,151668,2,4,L|392:304,1,179.999990463257
438,225,152605,2,4,P|419:140|338:112,1,179.999990463257,0|0,0:0|0:0,0:0:0:0:
208,112,153543,1,0,0:0:0:0:
208,112,154011,1,4,0:0:0:0:
256,192,155886,12,4,157293,0:0:0:0:
256,128,165261,5,0,0:0:0:0:
256,216,165730,1,4,0:0:0:0:
296,88,166199,1,0,0:0:0:0:
216,248,166668,1,4,0:0:0:0:
336,48,167136,1,0,0:0:0:0:
176,288,167605,1,4,0:0:0:0:
96,232,168074,2,4,P|80:200|176:80,1,179.999990463257
176,176,169011,5,0,0:0:0:0:
232,176,169480,1,4,0:0:0:0:
312,256,169949,1,0,0:0:0:0:
312,200,170418,1,4,0:0:0:0:
384,120,170886,1,0,0:0:0:0:
440,120,171355,1,4,0:0:0:0:
440,240,171824,5,0,0:0:0:0:
440,296,172293,1,4,0:0:0:0:
328,224,172761,2,4,P|121:299|121:115,1,359.999980926514
168,80,176511,5,0,0:0:0:0:
336,80,176980,1,4,0:0:0:0:
336,232,177449,1,0,0:0:0:0:
160,232,177918,1,4,0:0:0:0:
248,152,178386,5,0,0:0:0:0:
416,152,178855,1,4,0:0:0:0:
416,328,179324,1,0,0:0:0:0:
248,328,179793,1,4,0:0:0:0:
336,232,180261,5,0,0:0:0:0:
336,56,180730,1,4,0:0:0:0:
160,56,181199,1,0,0:0:0:0:
160,232,181668,1,4,0:0:0:0:
256,232,182136,2,4,L|256:48,2,179.999990463257
256,320,183543,1,4,0:0:0:0:
360,320,184011,6,4,L|360:128,2,179.999990463257
256,320,185418,1,4,0:0:0:0:
256,232,185886,2,4,L|256:48,2,179.999990463257
147,263,187761,6,4,B|103:191|103:191|175:111|175:111|343:111|343:111|399:191|399:191|335:303,1,539.999971389771
239,284,189636,2,4,L|239:101,1,179.999990463257
352,96,190574,1,4,0:0:0:0:
424,192,191043,1,0,0:0:0:0:
424,312,191511,1,4,0:0:0:0:
304,336,191980,2,4,B|256:272|256:272|304:224|304:224|304:160,1,179.999990463257
232,112,192918,5,0,0:0:0:0:
104,112,193386,1,4,0:0:0:0:
168,208,193855,2,4,B|168:280|168:280|224:336|368:364|436:228,1,359.999980926514
400,120,195261,1,0,0:0:0:0:
