osu file format v12

[General]
AudioFilename: Ke$ha - Die Young (Official)(1).mp3
AudioLeadIn: 0
PreviewTime: 37743
Countdown: 1
SampleSet: None
StackLeniency: 0.9
Mode: 0
LetterboxInBreaks: 1
WidescreenStoryboard: 1

[Editor]
Bookmarks: 37743,52741,112731,127729,179752,195218
DistanceSpacing: 0.9
BeatDivisor: 2
GridSize: 8

[Metadata]
Title:Die Young
TitleUnicode:Die Young
Artist:Ke$ha
ArtistUnicode:Ke$ha
Creator:Thor
Version:Hard
Source:
Tags:doomsday ke$ha thor mahiro yasaka
BeatmapID:337992
BeatmapSetID:134625

[Difficulty]
HPDrainRate:6
CircleSize:4
OverallDifficulty:5
ApproachRate:8
SliderMultiplier:2.19999990463257
SliderTickRate:3

[Events]
//Background and Video events
0,0,"Ke$ha-Die Young-SongsHeartland-2012-11-25-18h54m57s135.jpg",0,0
//Break Periods
2,22960,33495
2,52960,59745
2,82257,97010
2,127960,134745
2,157960,171542
//Storyboard Layer 0 (Background)
//Storyboard Layer 1 (Fail)
//Storyboard Layer 2 (Pass)
//Storyboard Layer 3 (Foreground)
//Storyboard Sound Samples
//Background Colour Transformations
3,100,163,162,255

[TimingPoints]
5886,468.75,4,3,0,100,1,0
37761,-100,4,3,0,100,0,1
52761,-100,4,3,0,100,0,0
112761,-100,4,3,0,100,0,1
127761,-100,4,3,0,100,0,0
180261,-100,4,3,0,100,0,1
195261,-100,4,3,0,100,0,0

[HitObjects]
128,176,7057,2,0,P|136:120|192:96,1,109.999995231628
320,96,7526,1,0,0:0:0:0:
320,232,7760,1,4,0:0:0:0:
432,304,7995,1,0,0:0:0:0:
432,176,8229,1,4,0:0:0:0:
168,192,8698,5,4,0:0:0:0:
168,80,8932,1,0,0:0:0:0:
264,136,9167,1,4,0:0:0:0:
376,136,9401,2,2,P|368:80|296:40,1,109.999995231628
240,104,9870,2,2,L|120:184,1,109.999995231628
152,272,10338,1,0,0:0:0:0:
424,80,11042,6,2,P|424:136|352:160,1,109.999995231628
168,104,11745,5,0,0:0:0:0:
120,200,11979,1,4,0:0:0:0:
168,296,12213,1,0,0:0:0:0:
280,296,12448,1,4,0:0:0:0:
224,200,12682,1,0,0:0:0:0:
120,200,12917,1,4,0:0:0:0:
168,104,13151,1,0,0:0:0:0:
280,104,13385,6,2,P|352:192|272:296,1,219.999990463257
96,296,14323,2,2,B|96:248|152:248|152:248|152:192|208:192|208:192|208:120,1,219.999990463257
320,144,15026,1,0,0:0:0:0:
432,144,15260,1,4,0:0:0:0:
432,256,15495,1,0,0:0:0:0:
368,344,15729,1,4,0:0:0:0:
368,232,15963,1,0,0:0:0:0:
192,96,16432,6,2,P|192:192|112:192,1,109.999995231628
112,144,16901,1,0,0:0:0:0:
112,232,17135,2,2,P|128:272|208:288,1,109.999995231628
272,296,17604,2,2,B|280:296|280:272|280:272|392:272,1,109.999995231628
256,192,18073,12,4,19010,0:0:0:0:
152,96,19479,5,4,0:0:0:0:
96,216,19713,1,0,0:0:0:0:
224,208,19948,2,2,B|264:192|264:240|264:240|336:240,3,109.999995231628
440,232,20885,2,2,L|440:104,1,109.999995231628
312,120,21354,2,2,L|456:120,1,109.999995231628
336,224,21823,2,2,L|432:120,1,109.999995231628
328,40,22292,5,4,0:0:0:0:
200,40,22526,1,0,0:0:0:0:
144,160,22760,1,4,0:0:0:0:
256,192,34245,12,12,37760,0:0:0:0:
256,136,37995,5,0,0:0:0:0:
136,184,38229,2,2,L|192:304,1,109.999995231628
312,280,38698,1,4,0:0:0:0:
448,280,38932,2,2,L|392:168,1,109.999995231628
152,80,39635,6,2,P|152:136|216:144,1,109.999995231628
328,152,40104,2,2,L|328:264,1,109.999995231628
192,264,40573,1,4,0:0:0:0:
320,264,40807,2,2,L|424:184,1,109.999995231628
432,64,41276,1,0,0:0:0:0:
432,64,41510,1,4,0:0:0:0:
296,64,41745,6,2,P|296:120|240:168,1,109.999995231628
152,88,42213,1,0,0:0:0:0:
80,200,42448,2,2,P|128:200|176:264,1,109.999995231628
248,336,42917,1,4,0:0:0:0:
328,256,43151,1,0,0:0:0:0:
296,152,43385,1,4,0:0:0:0:
184,168,43620,6,2,B|184:120|248:96|248:96|200:64|248:32|248:32|336:32,1,219.999990463257
368,176,44557,5,0,0:0:0:0:
296,256,44792,1,4,0:0:0:0:
368,336,45026,1,0,0:0:0:0:
440,256,45260,2,2,L|440:112,1,109.999995231628
224,136,45963,6,2,L|96:136,1,109.999995231628
120,248,46432,1,0,0:0:0:0:
208,184,46667,1,4,0:0:0:0:
152,280,46901,1,0,0:0:0:0:
240,216,47135,1,4,0:0:0:0:
184,312,47370,1,0,0:0:0:0:
272,248,47604,2,2,P|304:280|384:248,1,109.999995231628
336,168,48073,1,4,0:0:0:0:
136,80,48542,6,2,L|240:176,1,109.999995231628
136,232,49010,2,2,L|272:232,1,109.999995231628
328,304,49479,1,4,0:0:0:0:
440,304,49713,1,0,0:0:0:0:
384,208,49948,1,4,0:0:0:0:
272,208,50182,1,0,0:0:0:0:
208,120,50417,1,4,0:0:0:0:
320,112,50651,6,2,B|360:112|376:96|376:72|360:56|344:56|344:40,1,109.999995231628
128,72,51354,1,4,0:0:0:0:
128,72,51588,1,0,0:0:0:0:
128,184,51823,1,4,0:0:0:0:
128,72,52057,1,0,0:0:0:0:
224,128,52292,2,2,B|256:128|304:192|304:192|440:192,1,219.999990463257
232,272,60495,5,4,0:0:0:0:
320,288,60729,2,2,P|288:208|240:184,1,109.999995231628
192,168,61198,1,4,0:0:0:0:
192,80,61432,2,2,P|256:80|288:48,1,109.999995231628
376,40,61901,2,2,P|424:40|456:112,1,109.999995231628
424,168,62370,5,0,0:0:0:0:
384,248,62604,1,6,0:0:0:0:
424,328,62838,1,0,0:0:0:0:
336,320,63073,1,6,0:0:0:0:
248,320,63307,1,0,0:0:0:0:
160,320,63542,2,2,L|160:192,1,109.999995231628
320,136,64245,6,2,B|256:192|256:192|208:192,1,109.999995231628
200,112,64713,1,0,0:0:0:0:
112,112,64948,1,6,0:0:0:0:
112,200,65182,1,0,0:0:0:0:
152,280,65417,1,6,0:0:0:0:
240,280,65651,1,0,0:0:0:0:
304,216,65885,6,2,B|352:216|352:216|352:152,3,109.999995231628
184,96,67057,2,2,P|184:152|240:152,1,109.999995231628
320,152,67526,2,8,B|320:104|264:64|264:64|424:64,1,219.999990463257
432,232,68463,2,2,P|392:264|304:256,1,109.999995231628
248,264,68932,1,0,0:0:0:0:
192,200,69167,1,6,0:0:0:0:
104,200,69401,1,0,0:0:0:0:
48,264,69635,5,6,0:0:0:0:
48,176,69870,2,2,B|48:128|48:128|96:80,1,109.999995231628
184,88,70338,1,0,0:0:0:0:
184,88,70573,1,6,0:0:0:0:
360,104,71042,6,2,L|360:344,1,219.999990463257
272,320,71745,1,0,0:0:0:0:
216,248,71979,1,6,0:0:0:0:
272,176,72213,1,0,0:0:0:0:
272,88,72448,1,6,0:0:0:0:
184,88,72682,1,0,0:0:0:0:
128,152,72917,6,2,P|88:232|120:288,1,109.999995231628
160,296,73385,2,2,L|296:296,1,109.999995231628
352,256,73854,1,6,0:0:0:0:
440,256,74088,1,0,0:0:0:0:
360,208,74323,1,6,0:0:0:0:
448,208,74557,1,0,0:0:0:0:
448,120,74792,2,2,B|352:56|296:64|296:64|224:128,1,219.999990463257
192,168,75495,5,0,0:0:0:0:
104,168,75729,1,6,0:0:0:0:
184,136,75963,1,0,0:0:0:0:
120,200,76198,1,6,0:0:0:0:
152,120,76432,1,0,0:0:0:0:
152,208,76667,1,6,0:0:0:0:
112,128,76901,1,0,0:0:0:0:
184,176,77135,1,6,0:0:0:0:
272,184,77370,6,0,B|320:184|352:256|352:256|480:256,1,219.999990463257
432,80,78307,1,0,0:0:0:0:
256,80,78776,1,0,0:0:0:0:
168,80,79010,1,6,0:0:0:0:
48,208,79479,6,2,B|80:256|80:256|144:256,1,109.999995231628
224,264,79948,1,6,0:0:0:0:
296,216,80182,1,0,0:0:0:0:
384,216,80417,1,6,0:0:0:0:
296,64,80885,6,2,P|296:112|232:144,1,109.999995231628
160,144,81354,1,6,0:0:0:0:
160,232,81588,1,0,0:0:0:0:
216,304,81823,2,2,L|384:304,1,109.999995231628
128,88,97760,5,4,0:0:0:0:
288,240,98229,1,4,0:0:0:0:
80,304,98698,1,4,0:0:0:0:
232,144,99167,1,4,0:0:0:0:
408,280,99635,1,4,0:0:0:0:
448,64,100104,1,4,0:0:0:0:
304,232,100573,1,4,0:0:0:0:
88,232,101042,5,4,0:0:0:0:
304,232,101510,1,4,0:0:0:0:
88,192,101979,1,4,0:0:0:0:
304,184,102448,1,4,0:0:0:0:
88,152,102917,1,4,0:0:0:0:
304,144,103385,1,4,0:0:0:0:
248,240,103854,6,2,B|128:296|128:296|16:296,1,219.999990463257
40,216,104557,1,0,0:0:0:0:
96,160,104792,1,4,0:0:0:0:
160,120,105026,1,0,0:0:0:0:
240,120,105260,1,4,0:0:0:0:
312,144,105495,2,2,B|312:248|312:248|448:248,1,219.999990463257
448,176,106198,2,2,L|448:32,1,109.999995231628
376,48,106667,5,4,0:0:0:0:
296,48,106901,1,0,0:0:0:0:
280,120,107135,1,4,0:0:0:0:
200,120,107370,1,0,0:0:0:0:
152,184,107604,1,4,0:0:0:0:
152,264,107838,1,0,0:0:0:0:
232,264,108073,5,4,0:0:0:0:
296,224,108307,1,0,0:0:0:0:
376,224,108542,1,4,0:0:0:0:
256,192,110885,12,4,112759,0:0:0:0:
256,144,112995,5,0,0:0:0:0:
168,208,113229,1,4,0:0:0:0:
56,216,113463,2,2,L|120:320,1,109.999995231628
224,304,113932,2,2,L|272:176,1,109.999995231628
440,72,114635,5,4,0:0:0:0:
328,72,114870,1,0,0:0:0:0:
384,168,115104,1,4,0:0:0:0:
272,168,115338,2,2,L|128:168,1,109.999995231628
88,248,115807,1,0,0:0:0:0:
88,136,116042,1,4,0:0:0:0:
304,120,116510,6,2,P|320:176|280:232,1,109.999995231628
80,192,117213,1,0,0:0:0:0:
192,192,117448,1,4,0:0:0:0:
264,272,117682,2,2,L|392:272,1,109.999995231628
256,88,118385,6,2,P|256:144|304:168,1,109.999995231628
408,160,118854,1,4,0:0:0:0:
336,248,119088,1,0,0:0:0:0:
224,248,119323,2,2,B|184:272|184:272|128:224,3,109.999995231628
136,120,120260,1,4,0:0:0:0:
136,120,120495,1,0,0:0:0:0:
328,224,120963,6,2,B|240:320|240:320|88:320,1,219.999990463257
152,208,121667,1,4,0:0:0:0:
344,104,122135,2,2,L|224:200,1,109.999995231628
184,96,122604,1,4,0:0:0:0:
184,208,122838,1,0,0:0:0:0:
256,288,123073,1,4,0:0:0:0:
368,288,123307,2,2,L|280:160,1,109.999995231628
328,104,124245,6,2,B|256:192|256:192|176:80,1,219.999990463257
88,104,124948,1,4,0:0:0:0:
88,216,125182,1,0,0:0:0:0:
192,248,125417,2,2,L|88:336,1,109.999995231628
88,216,125885,1,4,0:0:0:0:
168,136,126120,1,0,0:0:0:0:
272,168,126354,5,4,0:0:0:0:
344,88,126588,2,2,L|376:200,1,109.999995231628
304,272,127057,1,0,0:0:0:0:
392,336,127292,1,4,0:0:0:0:
392,216,127526,1,0,0:0:0:0:
392,104,127760,1,4,0:0:0:0:
128,240,135495,6,2,P|128:192|200:128,1,109.999995231628
240,224,135963,1,0,0:0:0:0:
352,224,136198,1,4,0:0:0:0:
456,248,136432,2,2,P|456:192|400:128,1,109.999995231628
320,120,136901,2,2,L|168:120,2,109.999995231628
432,120,137604,1,4,0:0:0:0:
376,216,137838,2,2,P|368:264|248:288,1,109.999995231628
144,176,138542,6,2,B|88:80|88:80|240:80,1,219.999990463257
256,176,139245,1,0,0:0:0:0:
200,272,139479,1,4,0:0:0:0:
200,160,139713,2,2,B|200:112|200:112|232:112|232:112|232:64,1,109.999995231628
344,80,140182,1,4,0:0:0:0:
344,192,140417,5,0,0:0:0:0:
416,272,140651,1,0,0:0:0:0:
328,336,140885,1,4,0:0:0:0:
272,240,141120,2,2,B|328:240|360:184|360:184|496:184,1,219.999990463257
424,88,141823,5,4,0:0:0:0:
312,88,142057,2,2,B|256:88|224:144|224:144|88:144,1,219.999990463257
288,240,142995,6,2,L|416:304,1,109.999995231628
456,216,143463,2,2,L|456:80,1,109.999995231628
368,72,143932,1,0,0:0:0:0:
272,72,144167,2,2,P|216:72|176:144,1,109.999995231628
112,176,144635,2,2,L|200:272,1,109.999995231628
288,272,145104,1,4,0:0:0:0:
288,272,145338,2,2,P|344:272|432:136,1,219.999990463257
344,112,146042,6,2,L|200:56,1,109.999995231628
120,232,146745,1,0,0:0:0:0:
216,232,146979,2,2,B|272:232|272:232|352:288,1,109.999995231628
416,272,147448,2,2,L|416:136,1,109.999995231628
344,96,147917,2,2,L|224:160,1,109.999995231628
144,152,148385,1,4,0:0:0:0:
80,232,148620,1,0,0:0:0:0:
160,288,148854,5,4,0:0:0:0:
256,288,149088,1,0,0:0:0:0:
352,288,149323,2,2,P|376:248|344:168,1,109.999995231628
280,136,149792,2,2,P|280:96|344:56,1,109.999995231628
136,48,150495,5,0,0:0:0:0:
136,248,150963,2,2,B|152:192|152:192|232:192,1,109.999995231628
304,200,151432,1,0,0:0:0:0:
360,280,151667,1,4,0:0:0:0:
360,80,152135,6,2,B|328:80|312:64|296:80|280:64|264:80|248:64|232:80,1,109.999995231628
152,96,152604,1,4,0:0:0:0:
152,192,152838,1,0,0:0:0:0:
80,256,153073,1,4,0:0:0:0:
144,328,153307,2,2,B|200:328|200:328|256:288,1,109.999995231628
376,320,154245,6,2,B|376:192|376:192|288:80,1,219.999990463257
224,112,154948,1,4,0:0:0:0:
224,208,155182,1,0,0:0:0:0:
280,288,155417,1,4,0:0:0:0:
376,320,155651,2,2,P|424:320|448:224,1,109.999995231628
464,176,156120,2,2,L|464:40,1,109.999995231628
368,56,156588,6,2,L|264:168,1,109.999995231628
193,136,157057,1,0,0:0:0:0:
122,65,157292,1,4,0:0:0:0:
122,163,157526,2,2,L|122:307,1,109.999995231628
256,88,172292,5,4,0:0:0:0:
120,224,172760,1,4,0:0:0:0:
312,280,173229,1,0,0:0:0:0:
452,139,173698,1,4,0:0:0:0:
254,139,174167,1,4,0:0:0:0:
113,279,174635,1,4,0:0:0:0:
310,279,175104,5,4,0:0:0:0:
450,138,175573,1,4,0:0:0:0:
251,138,176042,1,4,0:0:0:0:
53,138,176510,1,4,0:0:0:0:
48,240,176745,2,2,P|48:296|128:336,1,109.999995231628
184,328,177213,2,2,L|320:328,1,109.999995231628
368,264,177682,2,2,L|368:144,1,109.999995231628
272,192,178151,6,2,L|144:192,1,109.999995231628
104,112,178620,1,0,0:0:0:0:
192,72,178854,1,4,0:0:0:0:
288,72,179088,1,0,0:0:0:0:
384,104,179323,1,4,0:0:0:0:
440,184,179557,1,0,0:0:0:0:
440,280,179792,1,4,0:0:0:0:
344,312,180026,6,2,B|296:320|296:320|224:304,2,109.999995231628
312,216,180729,1,4,0:0:0:0:
216,192,180963,2,2,P|176:168|200:96,1,109.999995231628
272,80,181432,1,0,0:0:0:0:
368,80,181667,1,4,0:0:0:0:
400,176,181901,1,0,0:0:0:0:
312,224,182135,1,4,0:0:0:0:
224,168,182370,1,0,0:0:0:0:
144,104,182604,6,2,B|144:160|80:192|80:192|80:304,1,219.999990463257
176,304,183307,1,0,0:0:0:0:
400,192,184245,6,2,B|368:160|368:160|392:88,1,109.999995231628
296,64,184713,2,2,L|136:64,1,109.999995231628
216,160,185182,2,2,L|216:328,1,109.999995231628
312,280,185651,1,0,0:0:0:0:
408,280,185885,1,4,0:0:0:0:
360,192,186120,1,0,0:0:0:0:
360,96,186354,2,2,P|256:104|256:280,1,219.999990463257
64,336,187292,6,2,P|64:280|128:232,1,109.999995231628
98,142,187760,1,4,0:0:0:0:
200,144,187995,2,2,P|328:144|392:256,1,219.999990463257
216,312,188932,6,2,L|216:200,2,109.999995231628
312,312,189635,1,4,0:0:0:0:
392,256,189870,1,0,0:0:0:0:
448,176,190104,1,4,0:0:0:0:
448,80,190338,1,0,0:0:0:0:
352,80,190573,1,4,0:0:0:0:
312,168,190807,1,0,0:0:0:0:
216,168,191042,1,4,0:0:0:0:
256,192,191745,12,4,195260,0:0:0:0:
