osu file format v7

[General]
AudioFilename: Ke$ha - Animal.mp3
AudioLeadIn: 0
PreviewTime: 67680
Countdown: 0
SampleSet: Soft
StackLeniency: 0.5
Mode: 0
LetterboxInBreaks: 0
EpilepsyWarning: 1

[Editor]
Bookmarks: 221435
DistanceSpacing: 1.79999995231628
BeatDivisor: 4
GridSize: 8

[Metadata]
Title:Animal
Artist:Ke$ha
Creator:hawkzor
Version:Kaneko & hawkzor collab
Source:
Tags:kesha Teara Kaneko

[Difficulty]
HPDrainRate:6
CircleSize:5
OverallDifficulty:8
SliderMultiplier:1.6
SliderTickRate:1

[Events]
//Background and Video events
0,0,"animalbg.jpg"
//Break Periods
2,53850,56138
2,79534,80958
2,121836,123260
2,166079,166856
2,190251,191460
//Storyboard Layer 0 (Background)
Sprite,Background,Centre,"animalbgcolour.jpg",320,240 L,193505,8 F,0,0,432,1,0 S,0,0,432,1,1.05 F,0,432,864,1,0 S,0,432,864,1,1.05 L,207319,8 F,0,0,432,1,0 S,0,0,432,1,1.05 F,0,432,864,1,0 S,0,432,864,1,1.05 F,0,200417,200423,0 S,0,200417,200427,1.05,1.002171 F,0,200423,200427,0,1 F,0,200427,201035,1,0 S,0,200427,201035,1.002171,1.049809 F,0,201035,201053,0 S,0,201035,201058,1.049809,1.001797 F,0,201053,201055,0 F,0,201055,201058,0,1 F,0,201058,201886,1,0 S,0,201058,201886,1.001797,1.049389 F,0,201886,201924,0 S,0,201886,201924,1.049389,1.001214 F,0,201924,201933,0,1 S,0,201924,202734,1.001214,1.048861 F,0,201933,202734,1,0 F,0,202734,202785,0 S,0,202734,202787,1.048861,1.000467 F,0,202785,202787,0,1 F,0,202787,203620,1,0 S,0,202787,203620,1.000467,1.04821 F,0,203620,203643,0 S,0,203620,203653,1.04821,0.9999506 F,0,203643,203652,0 F,0,203652,203653,0,1 F,0,203653,204513,1,0 S,0,203653,204513,0.9999506,1.047791 F,0,204513,205565,0 S,0,204513,205565,1.047791,1.002543 F,0,205565,205578,0,1 S,0,205565,205578,1.002543,1.002524 F,0,205578,206465,1,0 S,0,205578,206465,1.002524,1.049067 F,0,206465,207309,0 S,0,206465,207319,1.049067,1 F,0,207309,207319,0,1 F,0,214231,214239,0,1 S,0,214231,214239,1.05,1.002171 F,0,214239,214246,1 S,0,214239,214846,1.002171,1.05 F,0,214246,214254,1 F,0,214254,214849,1,0 S,0,214846,214861,1.05,1.002171 F,0,214849,214861,0,1 F,0,214861,214871,1,0 S,0,214861,214873,1.002171 F,0,214871,214873,0,1 F,0,214873,215715,1,0 S,0,214873,215715,1.002171,1.05 F,0,215715,215722,0 S,0,215715,215737,1.05,1.00217 F,0,215722,215732,0 F,0,215732,215737,0,1 F,0,215737,216575,1,0 S,0,215737,216575,1.00217,1.05 F,0,216575,216593,0 S,0,216575,216600,1.05,1.00217 F,0,216593,216600,0,1 F,0,216600,217437,1,0 S,0,216600,217437,1.00217,1.05 F,0,217437,217461,0 S,0,217437,217463,1.05,1.004318 F,0,217461,217463,0,1 F,0,217463,217466,1 S,0,217463,218974,1.004318,1.052147 F,0,217466,218974,1,0
//Storyboard Layer 1 (Fail)
//Storyboard Layer 2 (Pass)
//Storyboard Layer 3 (Foreground)
Sprite,Foreground,Centre,"sbnames\Teara.png",320,240 M,0,41473,41581,152,419,157,428 F,0,41581,41905,0 S,0,41581,43200,1,1.011098 F,0,41905,42013,0,0.2323132 F,0,42013,42337,0.2323132,0.2357297 F,0,42337,42445,0.2357297,0.5397867 F,0,42445,42768,0.5397867,0.5261213 F,0,42768,42876,0.5261213,0.765267 F,0,42876,43200,0.765267,0.7789325 F,0,43200,43308,0.7789325,1 S,0,43200,43308,1.011098,1.15032 S,0,43308,43416,1.15032,1.047829 F,0,43308,51725,1 S,0,43416,43524,1.047829,1.170819 S,0,43524,43632,1.170819,1.061495 S,0,43632,167191,1.061495,1.095159 F,0,51725,53668,1,0 F,0,53668,67912,0 F,0,67912,69207,0,1 F,0,69207,95106,1 F,0,95106,95322,1 F,0,95322,95430,1 F,0,95430,95538,1,0.6515303 F,0,95538,95862,0.6515303,0.6822776 F,0,95862,95969,0.6822776,0.3782207 F,0,95969,96293,0.3782207,0.3748043 F,0,96293,96401,0.3748043,0.121993 F,0,96401,96725,0.121993,0.1083275 F,0,96725,96833,0.1083275,0 F,0,96833,118523,0 F,0,118523,119279,0,1 F,0,119279,134601,1 F,0,134601,136544,1,0 F,0,136544,167191,0 F,0,167191,167515,0,0.5671175 S,0,167191,167623,1.095159,1.204983 F,0,167515,167623,0.5671175,1 S,0,167623,167839,1.204983,1.088826 F,0,167623,188342,1 F,0,188342,189205,1,0.5763701 F,0,189205,189637,0.5763701,0.5695373 F,0,189637,190069,0.5695373,0
Sprite,Foreground,Centre,"sbnames\hawkzor.png",320,240 M,0,54962,,149,424 F,0,54962,55286,0,0.0409964 S,0,54962,138270,0.8291815 F,0,55286,55394,0.0409964,0.3416371 F,0,55394,55718,0.3416371,0.3621353 F,0,55718,55826,0.3621353,0.6149465 F,0,55826,56150,0.6149465,0.6217794 F,0,56150,56257,0.6217794,0.819929 F,0,56257,56581,0.819929,0.8438436 F,0,56581,56689,0.8438436,1 F,0,56689,65538,1 F,0,65538,67480,1,0 F,0,67480,97264,0 F,0,97264,98559,0,1 F,0,98559,117552,1 F,0,117552,118415,1,0 F,0,118415,138270,0 F,0,138270,138486,0,1 S,0,138270,138486,0.8291815,0.9111743 S,0,138486,138702,0.9111743,0.8701776 F,0,138486,139134,1 S,0,138702,138918,0.8701776,0.9453378 S,0,138918,139134,0.9453378,0.8906756 F,0,139134,164493,1 F,0,164493,164601,1,0.8735945 F,0,164601,164925,0.8735945,0.8872598 F,0,164925,165033,0.8872598,0.7232741 F,0,165033,165357,0.7232741,0.7198577 F,0,165357,165464,0.7198577,0.5148752 F,0,165464,165788,0.5148752,0.4977933 F,0,165788,165896,0.4977933,0 F,0,165896,190500,0 F,0,190500,192227,0,1 F,0,192227,219853,1 F,0,219853,221795,1,0
//Storyboard Sound Samples
//Background Colour Transformations
3,100,163,162,255

[TimingPoints]
1852,431.654676258993,4,2,1,84,1,0
41564,-200,4,2,1,84,0,0
51924,-200,4,2,1,0,0,0
53543,-200,4,2,1,84,0,0
65737,-200,4,2,1,0,0,0
67355,-100,4,2,1,84,0,0
69190,-100,4,2,1,84,0,1
76528,-100,4,2,1,84,0,0
83003,-100,4,2,1,84,0,1
89910,-100,4,2,1,84,0,0
98542,-200,4,2,1,84,0,0
124010,1726.61870503597,4,2,1,20,1,0
126168,431.651570852008,4,2,1,50,1,0
127355,-200,4,2,1,70,0,0
128325,-200,4,2,1,0,0,0
128757,-200,4,2,1,86,0,0
134800,-200,4,2,1,0,0,0
136419,-200,4,2,1,85,0,0
138253,-100,4,2,1,85,0,1
145160,-100,4,2,1,85,0,0
152066,-100,4,2,1,85,0,1
158973,-100,4,2,1,85,0,0
169117,-100,4,2,1,30,0,0
170843,-100,4,2,1,84,0,0
172570,-100,4,2,1,30,0,0
176563,-200,4,2,1,16,0,0
179584,-100,4,2,1,30,0,0
181203,-100,4,2,1,84,0,0
182930,-100,4,2,1,30,0,0
184656,-100,4,2,1,84,0,0
186383,-100,4,2,1,30,0,0
188110,-100,4,2,1,84,0,0
193505,-100,4,2,1,84,0,1
199764,-100,4,2,1,84,0,0
207318,-100,4,2,1,84,0,1
209152,-100,4,2,1,0,0,1
209283,-100,4,2,1,84,0,1
212605,-100,4,2,1,0,0,1
212783,-100,4,2,1,85,0,1
213145,-100,4,2,1,85,0,0

[Colours]
Combo1 : 255,147,201
Combo2 : 66,168,230
Combo3 : 128,255,128

[HitObjects]
48,192,41564,5,2
256,32,41996,1,2
464,192,42428,1,2
368,192,42859,5,2
256,128,43075,1,0
144,192,43291,1,2
256,256,43507,1,0
256,128,43939,1,2
328,97,44586,2,0,B|275:2|139:74|191:168,1,240,2|2
256,320,46528,5,2
256,192,46744,1,0
256,64,46960,1,2
472,192,47392,5,2
360,192,47823,1,2
421,147,48255,2,0,B|386:107|324:106|304:124|270:169|296:224,1,200,2|2
80,192,50198,5,2
80,192,50845,1,2
80,192,51277,1,2
16,240,51708,2,0,B|48:288|48:288|112:288|112:288|173:220|175:179|170:137|128:104|72:104,1,360,2|2
137,128,56888,5,0
185,80,57104,1,2
329,80,57536,1,0
376,128,57751,1,2
256,176,58183,1,2
176,288,58615,2,0,B|192:304|208:336|256:368|304:336|336:304|344:283|344:283,1,200,0|2
136,232,60341,5,0
184,280,60557,1,2
374,232,60989,1,0
326,280,61205,1,2
255,184,61636,1,2
175,72,62068,2,0,B|191:56|207:24|255:-8|303:24|335:56|343:77|343:77,1,200,0|2
255,184,63579,1,0
160,72,64010,6,0,B|208:72|208:72,1,40,2|0
352,72,64658,2,0,C|312:72|312:72,1,40,2|0
256,120,65090,2,0,L|256:164|256:164,1,40,2|0
232,232,65521,2,0,B|201:243|181:266|170:308|187:330|197:353|222:374|255:381|292:369|312:355|327:337|338:303|329:273|320:256|301:240|284:234|264:227|264:227,1,360
144,192,69190,5,2
256,80,69622,1,8
368,192,70054,1,2
208,192,70485,5,10
256,128,70701,1,0
304,192,70917,1,2
144,192,71349,5,8
256,304,71780,1,2
368,192,72212,1,8
304,192,72644,5,2
256,256,72859,1,0
208,192,73075,1,10
256,40,73507,5,0
256,40,73939,1,10
208,192,74370,5,2
256,256,74586,1,0
304,192,74802,1,10
256,40,75233,5,0
256,40,75665,1,8
256,200,76097,5,2
96,200,76528,5,10
96,200,76744,1,2
256,376,77392,5,10
256,376,77608,1,2
416,192,78255,5,10
416,192,78471,1,2
256,16,79118,5,10
256,16,79334,1,2
256,192,81708,5,2
256,192,81924,1,2
256,192,82356,1,2
256,192,83003,6,0,B|104:192|48:112|112:48|152:40|152:40|216:40,1,320,2|2
160,104,84298,1,10
160,104,84514,2,0,B|416:104,1,240,2|10
400,104,85593,5,2
400,104,85809,1,2
256,192,86457,6,0,B|408:192|464:272|400:336|360:344|360:344|296:344,1,320,2|2
344,280,87751,1,10
344,280,87967,2,0,B|88:280,1,240,2|10
104,280,89046,5,2
104,280,89262,1,2
256,192,89910,1,2
256,32,90341,5,10
256,112,90557,1,2
256,352,91205,5,10
256,272,91421,1,2
96,192,92068,5,10
176,192,92284,1,2
416,192,92931,5,10
336,192,93147,1,2
256,192,93363,12,4,95090
336,272,95521,5,0
176,272,95953,1,0
176,112,96385,1,0
336,112,96816,1,2
256,64,98543,6,0,B|288:64|320:96|320:128|320:128,1,80
256,64,99190,2,0,B|224:64|192:96|192:128|192:128,1,80
256,160,99838,2,0,L|256:192|256:208,1,40,2|0
217,261,100269,2,0,L|300:261|300:261,3,80,0|2|0|6
256,192,101780,5,0
256,192,101996,2,0,B|288:192|320:160|320:128|320:128,1,80
256,192,102644,2,0,B|224:192|192:160|192:128|192:128,1,80
256,96,103291,1,0
256,96,103723,2,0,L|256:176|256:176,3,80,0|2|0|6
184,228,105449,6,2,L|184:276|184:276,1,40
328,228,106097,2,2,L|328:276|328:276,1,40
218,173,106744,2,0,L|317:173|317:173,2,80,2|0|2
208,104,107823,2,0,B|230:82|242:69|279:70|301:83|311:107|311:107,1,120
312,248,108903,5,0
312,248,109010,1,0
312,248,109118,1,0
256,200,109334,1,0
256,200,109442,1,0
256,200,109550,1,0
200,248,109766,1,0
200,248,109874,1,0
200,248,109982,1,0
128,240,110198,5,2
128,240,110629,2,0,B|96:224|80:208|80:176|80:176,1,80
96,112,111277,2,0,B|186:212|186:212,1,120,0|2
272,96,112356,6,0,B|274:146|305:162|328:162|328:162,1,80
272,222,113003,2,0,B|274:172|305:156|328:156|328:156,1,80
313,160,113651,2,0,B|356:161|356:161|356:161,1,40,2|0
384,96,114082,2,0,B|416:112|432:144|435:180|421:212|377:228|377:228,2,160,4|0|4
256,272,116457,5,4
256,64,117104,1,4
188,193,117536,2,0,B|256:120|327:196,1,160,4|2
80,352,119262,5,4
80,32,119910,1,4
448,32,120557,1,4
448,224,120989,1,4
80,224,121636,1,4
256,96,124010,6,0,B|256:240,1,120,2|2
16,192,125951,1,0
96,192,126167,1,2
176,192,126383,1,0
56,88,126815,1,2
56,88,127462,5,2
56,88,127678,2,0,B|72:32|145:16|208:32|232:72|232:120|304:120,1,280,0|2
328,104,129405,1,0
368,104,129620,1,2
400,128,129836,1,0
440,200,130268,1,2
408,272,130699,5,0
352,208,131131,2,0,B|270:140|143:193|156:302,1,280,0|2
232,336,133074,1,2
272,328,133289,1,2
320,264,133721,1,2
328,184,134153,1,2
328,184,134584,6,0,B|308:88|215:54|215:54|116:88|100:184,1,360,2|0
256,192,136743,12,4,137822
256,144,138253,5,0
256,144,138469,1,0
256,144,138685,1,8
256,144,138901,1,0
256,144,139117,1,0
256,144,139333,1,0
256,144,139548,1,8
256,144,139764,2,2,B|154:204|244:275|383:267|224:364|224:364,1,240,2|10
416,144,140843,6,0,B|445:61,2,80,2|0|10
128,192,141707,1,0
184,323,141922,1,0
328,323,142138,1,8
256,192,142354,1,0
400,192,142570,1,0
328,66,142786,1,0
184,66,143002,1,8
256,192,143217,2,0,B|198:165|138:174|109:214|88:244|92:279|113:333|113:333,1,240,0|8
392,304,144297,6,0,B|333:226,2,80,0|0|8
256,56,145160,2,0,B|351:62|400:132|400:132,1,160,0|10
347,269,145807,2,0,B|192:336|175:163|175:163,1,240,0|10
285,73,146671,2,0,B|237:171|333:217|333:217,1,160
323,211,147318,1,8
184,176,147534,2,0,B|136:274|232:320|232:320,1,160
324,212,148181,1,10
373,90,148397,2,0,B|161:90|161:90|121:90,1,240,0|10
256,176,149261,5,4
335,295,149476,2,0,B|145:295|145:295,1,160,0|10
64,192,150124,1,4
64,192,150340,2,0,B|32:96|112:48|112:48,1,160,0|10
256,48,150987,1,0
256,336,151419,1,0
352,88,152066,5,0
448,192,152282,1,0
352,296,152498,1,8
256,192,152714,1,0
152,296,152930,1,0
56,192,153145,1,0
152,88,153361,1,8
256,192,153577,1,0
256,192,153793,2,0,B|312:192|344:176|368:152|368:104|368:104,1,160
96,208,154656,6,0,B|82:288|82:288|86:281,2,80,0|0|10
384,192,155520,5,0
328,323,155736,1,0
184,323,155951,1,8
256,192,156167,1,0
112,192,156383,1,0
184,66,156599,1,0
328,66,156815,1,8
256,192,157031,2,0,B|314:165|374:174|403:214|424:244|420:279|399:333|399:333,1,240,0|8
104,302,158110,6,0,B|163:224,2,80,0|0|8
256,64,158973,2,0,B|161:70|112:140|112:140,1,160,0|10
160,272,159620,2,0,B|311:289|363:131|363:131,1,240,0|10
224,80,160483,2,0,B|272:178|176:224|176:224,1,160
185,218,161131,1,8
328,184,161347,2,0,B|376:282|280:328|280:328,1,160
185,219,161994,5,10
53,267,162210,2,0,B|57:197|65:129|83:91|132:48|187:20|241:12|274:11|340:21|409:51|444:81|472:118|486:160|490:218|490:287|489:300|489:300,1,720
330,277,164584,5,0
330,117,165016,1,0
171,117,165447,1,0
171,277,165879,1,2
48,48,167606,5,2
256,192,168253,1,2
48,336,168901,1,2
112,80,169332,5,2
400,80,169764,1,2
400,304,170196,1,2
112,304,170627,1,2
256,192,171059,5,2
112,192,171491,1,0
112,192,171706,1,2
400,192,172138,1,0
400,192,172354,1,2
256,336,172786,5,2
48,192,173217,1,2
256,48,173649,1,2
464,192,174080,1,2
256,192,174512,5,2
160,272,174944,1,0
160,272,175160,1,2
64,192,175591,1,0
64,192,175807,1,2
64,192,176239,5,2
120,136,176670,2,2,B|120:192,1,40
160,176,177102,2,2,B|160:216,1,40
200,208,177534,2,2,B|200:264,1,40
240,232,177965,2,2,B|240:288,1,40
280,264,178397,2,2,B|280:208,1,40
320,224,178829,2,2,B|320:168,1,40
360,176,179260,2,2,B|360:120,1,40
400,192,179692,5,2
112,192,180124,1,2
400,128,180555,1,2
112,128,180987,1,2
400,128,181419,5,2
112,128,181850,1,0
256,128,182066,1,2
256,128,182498,1,0
400,128,182714,1,2
112,64,183145,5,2
400,64,183577,1,2
112,128,184008,1,2
400,128,184440,1,2
256,368,184872,5,2
256,80,185303,1,0
256,224,185519,1,2
256,224,185951,1,0
256,80,186167,1,2
256,80,186598,5,2
256,368,187030,1,2
192,80,187462,1,2
192,368,187893,1,2
416,192,188325,6,0,B|272:112|96:192,1,320,2|2
32,240,189620,2,0,B|111:314|197:231,1,160,2|0
256,192,192210,5,0
80,64,192426,1,0
432,336,192857,1,2
80,64,193505,5,10
80,64,193613,1,0
80,64,193721,1,0
184,168,193936,2,0,B|216:136|248:128|280:128|304:144|337:182|337:182,1,160,0|10
424,64,194584,1,0
424,208,194800,1,0
424,208,194908,1,0
424,208,195016,1,0
325,312,195231,2,0,B|282:272|243:270|205:278|176:323|176:323,1,160,10|4
326,62,196095,6,0,B|283:102|244:104|206:96|177:51|177:51,1,160,10|0
82,162,196742,1,0
82,306,196958,1,10
82,306,197066,1,0
82,306,197174,1,0
226,306,197390,2,0,B|253:293|286:282|299:300|323:339|352:325|406:277|406:277,1,160,0|10
480,195,198037,1,0
378,93,198253,6,0,B|351:80|318:69|305:87|281:126|252:112|198:64|198:64,1,160,4|10
225,84,198793,1,0
225,84,198900,1,0
86,122,199116,2,0,B|53:166|53:214|61:254|103:286|103:286,1,160,4|10
87,270,199764,1,2
472,80,200411,6,2,B|472:184|472:184,1,80,10|2
472,304,200843,2,2,B|472:208|472:208,1,80
342,159,201275,2,2,B|342:65|342:65|336:72,1,80,10|2
342,223,201706,2,2,B|342:311|342:311,1,80
218,227,202138,2,2,B|218:310|218:310,1,80,10|2
218,162,202569,2,2,B|218:80|218:80|217:80,1,80
73,82,203001,2,2,B|73:170|73:170,1,80,10|2
73,306,203433,2,6,B|73:211|73:211,1,80
256,192,203864,12,4,205591
256,208,206023,5,2
256,208,206239,1,0
256,208,206670,2,0,B|256:312|256:312,1,80,0|2
256,288,207318,5,0
357,186,207533,1,0
255,84,207749,1,10
153,185,207965,1,0
256,288,208181,5,4
357,186,208397,1,0
255,84,208613,1,10
153,185,208828,2,0,B|400:185|400:185,1,240,0|8
256,96,209908,5,0
256,256,210123,2,0,B|256:344|256:344,1,80,0|10
256,96,210771,5,4
154,197,210987,1,0
255,298,211203,1,10
356,196,211418,1,0
256,96,211634,5,0
154,197,211850,1,0
255,298,212066,1,10
356,196,212282,2,0,B|114:196|114:196,1,240,0|8
200,344,213361,6,0,B|208:306|238:281|289:279|313:311|313:365|313:365,1,160,0|8
310,185,214008,1,0
470,185,214224,6,0,B|438:137|462:105|490:93|490:93,1,80,2|0
406,257,214656,2,0,B|374:209|398:177|426:165|426:165,1,80,8|0
342,329,215087,2,0,B|310:281|334:249|362:237|362:237,1,80,2|0
195,254,215519,2,0,B|227:302|203:334|175:346|175:346,1,80,8|0
120,184,215951,2,0,B|152:232|128:264|100:276|100:276,1,80,2|0
48,112,216382,2,0,B|80:160|56:192|28:204|28:204,1,80,4|0
193,116,216814,6,0,B|232:131|256:171|256:219|256:219|256:267|256:267,1,160,2|8
256,251,217354,1,0
256,251,217461,1,0
320,115,217677,6,0,B|281:130|257:170|257:218|257:218|257:266|257:266,1,160,0|8
257,250,218217,1,0
257,250,218325,1,0
417,250,218541,1,2
97,250,218972,1,4
417,250,219404,1,2
96,184,219836,5,0
416,184,220267,1,0
96,112,220699,1,0
416,112,221130,1,2
