osu file format v7

[General]
AudioFilename: Ke$ha - Animal.mp3
AudioLeadIn: 0
PreviewTime: 67680
Countdown: 0
SampleSet: Soft
StackLeniency: 0.5
Mode: 0
LetterboxInBreaks: 0
EpilepsyWarning: 1

[Editor]
Bookmarks: 41564
DistanceSpacing: 1
BeatDivisor: 2
GridSize: 8

[Metadata]
Title:Animal
Artist:Ke$ha
Creator:hawkzor
Version:Easy
Source:
Tags:kesha Teara Kaneko

[Difficulty]
HPDrainRate:2
CircleSize:3
OverallDifficulty:2
SliderMultiplier:0.8
SliderTickRate:1

[Events]
//Background and Video events
0,0,"animalbg.jpg"
//Break Periods
2,53418,55328
2,122483,124392
//Storyboard Layer 0 (Background)
//Storyboard Layer 1 (Fail)
//Storyboard Layer 2 (Pass)
//Storyboard Layer 3 (Foreground)
//Storyboard Sound Samples
//Background Colour Transformations
3,100,163,162,255

[TimingPoints]
1852,431.654676258993,4,2,1,84,1,0
51924,-100,4,2,1,0,0,0
53106,-100,4,2,1,84,0,0
69190,-100,4,2,1,84,0,1
96816,-100,4,2,1,84,0,0
134801,-100,4,2,1,0,0,0
135996,-100,4,2,1,70,0,0
138039,-100,4,2,1,86,0,0
138254,-100,4,2,1,84,0,1
165880,-100,4,2,1,84,0,0

[Colours]
Combo1 : 255,147,201
Combo2 : 66,168,230
Combo3 : 128,255,128

[HitObjects]
112,96,41564,1,0
256,96,42428,1,0
400,96,43291,1,0
310,228,44154,1,0
416,304,44802,2,0,B|104:304|104:304,1,280
48,240,46744,6,0,B|38:207|33:164|37:127|50:81|50:81,1,160,2|0
120,168,48255,2,0,B|424:168|424:168,1,280,2|0
464,120,50197,6,0,B|488:168|480:216|464:248|464:248,1,120,0|2
408,288,51276,1,2
392,208,51708,2,0,B|88:208|88:208,1,280,4|0
472,232,56888,6,0,B|453:197|443:152|446:116|477:73|477:73,1,160,2|0
384,216,58615,2,0,B|80:216|80:216,1,280,2|0
32,184,60557,6,0,B|48:136|48:88|24:56|24:56,1,120,0|2
109,56,61636,1,2
120,136,62068,2,0,B|424:136|424:136,1,280,4|0
376,216,64010,5,8
256,240,64658,1,8
256,240,65089,1,0
256,192,65521,12,0,67463
144,176,69190,6,2,B|168:128|208:104|256:80|304:104|352:128|370:182|370:182,1,280
256,288,71780,1,8
256,288,71996,1,8
144,240,72643,2,2,B|168:192|208:168|256:144|304:168|352:192|370:246|370:246,1,280
256,80,75233,5,8
256,80,75449,1,8
144,128,76096,2,2,B|152:192|200:224|256:264|312:224|368:192|370:122|370:122,2,320
288,56,80413,2,0,B|200:56|200:56|200:56,1,80
112,184,81708,6,0,B|157:149|188:139|237:149|274:207|274:207,1,160,2|0
184,232,83003,2,2,B|229:267|260:277|309:267|346:209|346:209,2,160
256,80,85593,6,8,B|256:128|256:128,1,40
184,216,86456,2,2,B|229:251|260:261|309:251|346:193|346:193,2,160
256,360,89046,6,8,B|256:296|256:296,1,40
328,224,89909,2,2,B|283:189|256:176|203:189|166:247|166:247,3,160
256,80,93363,2,0,B|256:352|256:352,1,240,4|0
216,168,95521,5,0
296,168,95952,1,0
296,248,96384,1,0
216,248,96816,1,0
194,75,98542,5,0
314,75,99190,1,0
427,113,99837,2,0,B|451:153|427:209|427:209,1,80,2|2
160,248,101780,6,0,B|192:248|216:248|216:248,1,40,2|0
320,248,102643,1,0
432,208,103291,2,0,B|456:168|432:112|432:112,1,80,2|2
192,328,105449,5,0
312,328,106096,1,0
312,208,106744,2,0,B|344:160|304:96|304:96,1,80,2|2
203,163,107823,2,0,B|179:115|179:75|211:19|211:19,1,120,4|0
400,177,110197,1,0
400,96,110629,2,0,B|355:97|330:125|314:146|312:176|314:204|328:235|352:256|400:258|400:258,1,240
318,309,112355,5,0
198,309,113003,1,0
85,271,113650,2,0,B|61:231|85:175|85:175,1,80,0|2
387,103,115808,5,8
267,103,116456,1,8
160,152,117103,2,0,B|136:192|160:248|160:248,1,80,2|2
312,56,119262,5,0
192,56,119909,1,0
192,176,120557,2,0,B|160:224|200:288|200:288,1,80,2|2
301,221,121636,2,0,B|325:269|325:309|293:365|293:365,1,120,4|0
211,202,125952,5,0
211,202,126168,2,0,B|150:196|95:174|52:148|34:136|34:136,1,160
95,79,127463,2,0,B|192:128|256:144|320:128|422:64|422:64,1,320
458,130,129621,6,0,B|468:163|473:206|469:243|456:289|456:289,1,160,2|0
392,216,131132,2,0,B|309:256|214:262|148:235|109:206|109:206,1,280
56,264,133075,6,0,B|32:216|40:168|56:136|56:136,1,120,2|2
112,96,134154,1,2
128,176,134585,2,0,B|208:208|264:232|328:208|366:196|421:170|421:170,1,280
368,208,138254,6,2,B|344:256|304:280|256:304|208:280|160:256|142:202|142:202,1,280
256,96,140844,1,8
256,96,141060,1,8
368,144,141708,2,2,B|344:192|304:216|256:240|208:216|160:192|142:138|142:138,1,280
256,304,144298,5,8
256,304,144513,1,8
368,256,145161,2,2,B|344:208|304:184|256:160|208:184|160:208|142:262|142:262,2,280
256,192,148398,12,0,149909
368,218,150772,6,0,B|323:253|292:263|243:253|206:195|206:195,1,160,2|0
293,170,152067,2,2,B|248:135|217:125|168:135|131:193|131:193,2,160
256,328,154657,6,8,B|256:280|256:280,1,40
328,192,155521,2,2,B|283:157|252:147|203:157|166:215|166:215,2,160
256,48,158110,6,8,B|256:112|256:112,1,40
184,184,158974,2,2,B|229:219|256:232|309:219|346:161|346:161,3,160
256,328,162427,2,0,B|256:56|256:56,1,240,4|0
256,192,164154,12,2,165880
