osu file format v14

[General]
AudioFilename: Gateway to Disconnection.mp3
AudioLeadIn: 0
PreviewTime: -1
Countdown: 0
SampleSet: Soft
StackLeniency: 0.7
Mode: 3
LetterboxInBreaks: 0
SpecialStyle: 0
WidescreenStoryboard: 1

[Editor]
DistanceSpacing: 1.5
BeatDivisor: 2
GridSize: 32
TimelineZoom: 1.600006

[Metadata]
Title:Gateway To Disconnection
TitleUnicode:Gateway To Disconnection
Artist:KcHecKa
ArtistUnicode:KcHecKa
Creator:KcHecKa
Version:Connected
Source:metrogx
Tags:metrogx helblinde disconnected
BeatmapID:852708
BeatmapSetID:390740

[Difficulty]
HPDrainRate:4
CircleSize:4
OverallDifficulty:4
ApproachRate:5
SliderMultiplier:1
SliderTickRate:1

[Events]
//Background and Video events
0,0,"tempBG.JPG",0,0
//Break Periods
//Storyboard Layer 0 (Background)
//Storyboard Layer 1 (Fail)
//Storyboard Layer 2 (Pass)
//Storyboard Layer 3 (Foreground)
//Storyboard Sound Samples

[TimingPoints]
0,300,4,2,0,100,1,0
112787,300,4,2,0,100,1,0

[HitObjects]
192,192,2400,128,0,3000:0:0:0:0:
64,192,2400,128,0,3000:0:0:0:0:
320,192,3000,1,0,0:0:0:0:
192,192,3300,1,0,0:0:0:0:
320,192,3600,128,0,4200:0:0:0:0:
448,192,3600,128,0,4200:0:0:0:0:
192,192,4200,1,0,0:0:0:0:
448,192,4500,1,0,0:0:0:0:
192,192,4800,128,0,5400:0:0:0:0:
64,192,4800,128,0,5400:0:0:0:0:
448,192,5400,1,0,0:0:0:0:
320,192,5700,1,0,0:0:0:0:
448,192,6000,128,0,6600:0:0:0:0:
192,192,6000,128,0,6600:0:0:0:0:
320,192,6600,1,0,0:0:0:0:
192,192,6900,1,0,0:0:0:0:
64,192,7200,128,0,7800:0:0:0:0:
192,192,7200,128,0,7800:0:0:0:0:
320,192,7800,1,0,0:0:0:0:
448,192,8100,1,0,0:0:0:0:
320,192,8400,128,0,9000:0:0:0:0:
448,192,8400,128,0,9000:0:0:0:0:
192,192,9000,1,0,0:0:0:0:
448,192,9300,1,0,0:0:0:0:
64,192,9600,128,0,10200:0:0:0:0:
448,192,9600,128,0,10200:0:0:0:0:
320,192,10200,1,0,0:0:0:0:
448,192,10500,1,0,0:0:0:0:
320,192,10800,128,0,11400:0:0:0:0:
192,192,10800,128,0,11400:0:0:0:0:
448,192,11400,1,0,0:0:0:0:
320,192,11700,1,0,0:0:0:0:
448,192,12000,128,0,13200:0:0:0:0:
320,192,12000,128,0,13200:0:0:0:0:
64,192,12600,1,0,0:0:0:0:
192,192,13200,128,0,14400:0:0:0:0:
320,192,13800,1,0,0:0:0:0:
320,192,14400,128,0,15600:0:0:0:0:
192,192,15000,1,0,0:0:0:0:
64,192,15600,128,0,16800:0:0:0:0:
448,192,16200,1,0,0:0:0:0:
192,192,16500,1,0,0:0:0:0:
320,192,16800,128,0,18000:0:0:0:0:
64,192,17400,1,0,0:0:0:0:
64,192,18000,128,0,19200:0:0:0:0:
320,192,18600,1,0,0:0:0:0:
448,192,19200,128,0,20400:0:0:0:0:
64,192,19800,1,0,0:0:0:0:
192,192,20400,128,0,21600:0:0:0:0:
320,192,21000,1,0,0:0:0:0:
320,192,21600,128,0,21900:0:0:0:0:
448,192,21600,128,0,21900:0:0:0:0:
64,192,22200,128,0,22500:0:0:0:0:
192,192,22200,128,0,22500:0:0:0:0:
64,192,22800,128,0,23250:0:0:0:0:
448,192,22800,128,0,23250:0:0:0:0:
448,192,23550,1,0,0:0:0:0:
64,192,24000,128,0,24300:0:0:0:0:
192,192,24000,128,0,24300:0:0:0:0:
192,192,24600,128,0,24900:0:0:0:0:
448,192,24600,128,0,24900:0:0:0:0:
64,192,25050,128,0,25650:0:0:0:0:
320,192,25050,128,0,25650:0:0:0:0:
192,192,25800,1,0,0:0:0:0:
320,192,25950,1,0,0:0:0:0:
448,192,26100,1,0,0:0:0:0:
64,192,26400,128,0,26850:0:0:0:0:
320,192,26850,128,0,29400:0:0:0:0:
192,192,27000,1,0,0:0:0:0:
192,192,27600,1,0,0:0:0:0:
192,192,28200,1,0,0:0:0:0:
192,192,28800,1,0,0:0:0:0:
64,192,29400,128,0,30000:0:0:0:0:
192,192,30000,128,0,30600:0:0:0:0:
320,192,30600,128,0,31200:0:0:0:0:
64,192,31200,128,0,31650:0:0:0:0:
448,192,31950,128,0,32250:0:0:0:0:
448,192,33000,128,0,33300:0:0:0:0:
192,192,33000,128,0,33300:0:0:0:0:
320,192,33600,1,0,0:0:0:0:
64,192,34050,128,0,34350:0:0:0:0:
320,192,34650,128,0,35100:0:0:0:0:
448,192,35400,128,0,35700:0:0:0:0:
320,192,35400,128,0,35700:0:0:0:0:
64,192,36000,128,0,38400:0:0:0:0:
192,192,36450,128,0,38400:0:0:0:0:
320,192,39000,128,0,39300:0:0:0:0:
192,192,39600,128,0,39900:0:0:0:0:
64,192,40200,128,0,40500:0:0:0:0:
192,192,40800,1,0,0:0:0:0:
320,192,41700,1,0,0:0:0:0:
64,192,42000,1,0,0:0:0:0:
320,192,42000,1,0,0:0:0:0:
192,192,42450,1,0,0:0:0:0:
448,192,42450,1,0,0:0:0:0:
64,192,42900,1,0,0:0:0:0:
192,192,42900,1,0,0:0:0:0:
192,192,43200,1,0,0:0:0:0:
448,192,43200,1,0,0:0:0:0:
320,192,43650,1,0,0:0:0:0:
448,192,43650,1,0,0:0:0:0:
64,192,44400,1,0,0:0:0:0:
448,192,44400,1,0,0:0:0:0:
64,192,44850,1,0,0:0:0:0:
192,192,44850,1,0,0:0:0:0:
320,192,45600,128,0,46350:0:0:0:0:
192,192,46650,128,0,47100:0:0:0:0:
64,192,47400,1,0,0:0:0:0:
320,192,47700,1,0,0:0:0:0:
192,192,48000,128,0,48750:0:0:0:0:
448,192,49050,128,0,49500:0:0:0:0:
64,192,49950,1,0,0:0:0:0:
192,192,50400,1,0,0:0:0:0:
64,192,51000,1,0,0:0:0:0:
192,192,51000,1,0,0:0:0:0:
320,192,51600,1,0,0:0:0:0:
192,192,52200,1,0,0:0:0:0:
448,192,52200,1,0,0:0:0:0:
64,192,52800,128,0,54000:0:0:0:0:
192,192,54000,128,0,55200:0:0:0:0:
320,192,55200,128,0,56400:0:0:0:0:
448,192,56400,128,0,57600:0:0:0:0:
64,192,57600,1,0,0:0:0:0:
320,192,57900,1,0,0:0:0:0:
448,192,58200,1,0,0:0:0:0:
64,192,58500,1,0,0:0:0:0:
320,192,58800,1,0,0:0:0:0:
192,192,59100,1,0,0:0:0:0:
448,192,59400,1,0,0:0:0:0:
64,192,59700,1,0,0:0:0:0:
192,192,60000,128,0,61200:0:0:0:0:
320,192,61200,128,0,62400:0:0:0:0:
64,192,62400,128,0,62700:0:0:0:0:
320,192,63000,128,0,63300:0:0:0:0:
192,192,63600,128,0,63900:0:0:0:0:
448,192,64200,128,0,64500:0:0:0:0:
64,192,64800,128,0,65100:0:0:0:0:
448,192,65400,128,0,65700:0:0:0:0:
320,192,66000,128,0,66300:0:0:0:0:
192,192,66600,128,0,66900:0:0:0:0:
448,192,67050,128,0,67500:0:0:0:0:
192,192,67650,1,0,0:0:0:0:
64,192,67800,128,0,68100:0:0:0:0:
320,192,68250,1,0,0:0:0:0:
448,192,68400,128,0,68700:0:0:0:0:
320,192,68850,1,0,0:0:0:0:
192,192,69000,128,0,69300:0:0:0:0:
64,192,69450,1,0,0:0:0:0:
320,192,69600,1,0,0:0:0:0:
448,192,69900,1,0,0:0:0:0:
192,192,70050,1,0,0:0:0:0:
320,192,70350,1,0,0:0:0:0:
64,192,70650,128,0,71100:0:0:0:0:
192,192,71400,1,0,0:0:0:0:
64,192,71550,1,0,0:0:0:0:
320,192,71700,1,0,0:0:0:0:
448,192,72000,128,0,73200:0:0:0:0:
192,192,73200,128,0,74400:0:0:0:0:
320,192,74400,128,0,75600:0:0:0:0:
64,192,75600,128,0,76800:0:0:0:0:
320,192,76800,128,0,78000:0:0:0:0:
448,192,78000,128,0,79200:0:0:0:0:
192,192,79200,128,0,80400:0:0:0:0:
448,192,80400,128,0,81000:0:0:0:0:
192,192,81000,128,0,81600:0:0:0:0:
448,192,81600,128,0,81900:0:0:0:0:
320,192,82200,128,0,82500:0:0:0:0:
192,192,82800,128,0,83100:0:0:0:0:
448,192,83400,128,0,83700:0:0:0:0:
64,192,84000,128,0,84300:0:0:0:0:
320,192,84600,128,0,84900:0:0:0:0:
192,192,85200,128,0,85500:0:0:0:0:
448,192,85650,128,0,85950:0:0:0:0:
64,192,85950,128,0,86250:0:0:0:0:
192,192,86250,128,0,86700:0:0:0:0:
320,192,86850,1,0,0:0:0:0:
64,192,87000,128,0,87300:0:0:0:0:
320,192,87450,1,0,0:0:0:0:
448,192,87600,128,0,87900:0:0:0:0:
320,192,88050,1,0,0:0:0:0:
64,192,88200,128,0,88500:0:0:0:0:
192,192,88650,1,0,0:0:0:0:
320,192,88800,128,0,89100:0:0:0:0:
192,192,89250,128,0,89550:0:0:0:0:
448,192,89550,1,0,0:0:0:0:
320,192,89850,128,0,90300:0:0:0:0:
64,192,90600,1,0,0:0:0:0:
448,192,90900,128,0,91200:0:0:0:0:
64,192,91200,128,0,92400:0:0:0:0:
192,192,92400,128,0,93600:0:0:0:0:
320,192,93600,128,0,94800:0:0:0:0:
64,192,94800,128,0,96000:0:0:0:0:
448,192,96000,128,0,97200:0:0:0:0:
192,192,97200,128,0,98400:0:0:0:0:
320,192,98400,128,0,99600:0:0:0:0:
64,192,99600,128,0,100800:0:0:0:0:
320,192,100800,128,0,101100:0:0:0:0:
192,192,101400,128,0,101700:0:0:0:0:
448,192,102000,128,0,102300:0:0:0:0:
64,192,102600,128,0,102900:0:0:0:0:
320,192,103200,128,0,103500:0:0:0:0:
448,192,103800,128,0,104100:0:0:0:0:
192,192,104400,128,0,104700:0:0:0:0:
64,192,105000,128,0,105300:0:0:0:0:
320,192,105600,128,0,106800:0:0:0:0:
192,192,106800,128,0,108000:0:0:0:0:
448,192,108000,1,0,0:0:0:0:
320,192,108300,1,0,0:0:0:0:
64,192,108600,1,0,0:0:0:0:
448,192,108900,1,0,0:0:0:0:
192,192,109200,128,0,110400:0:0:0:0:
448,192,110400,128,0,111000:0:0:0:0:
64,192,111000,1,0,0:0:0:0:
448,192,111300,1,0,0:0:0:0:
192,192,111600,128,0,112200:0:0:0:0:
448,192,112200,1,0,0:0:0:0:
64,192,112500,1,0,0:0:0:0:
320,192,112800,128,0,113387:0:0:0:0:
64,192,113387,1,0,0:0:0:0:
448,192,113687,1,0,0:0:0:0:
192,192,113987,128,0,114587:0:0:0:0:
320,192,114587,1,0,0:0:0:0:
448,192,114887,1,0,0:0:0:0:
64,192,115187,128,0,115787:0:0:0:0:
448,192,115787,1,0,0:0:0:0:
192,192,116087,1,0,0:0:0:0:
320,192,116387,128,0,116987:0:0:0:0:
192,192,116987,1,0,0:0:0:0:
448,192,117287,1,0,0:0:0:0:
64,192,117587,128,0,118187:0:0:0:0:
320,192,118187,1,0,0:0:0:0:
192,192,118487,1,0,0:0:0:0:
448,192,118787,128,0,119387:0:0:0:0:
320,192,119387,1,0,0:0:0:0:
192,192,119687,1,0,0:0:0:0:
448,192,119987,128,0,120587:0:0:0:0:
192,192,120287,1,0,0:0:0:0:
64,192,120587,1,0,0:0:0:0:
192,192,120737,1,0,0:0:0:0:
320,192,121037,128,0,121337:0:0:0:0:
192,192,121337,128,0,121637:0:0:0:0:
64,192,121637,128,0,121937:0:0:0:0:
448,192,121937,128,0,122237:0:0:0:0:
320,192,122237,128,0,122537:0:0:0:0:
64,192,122687,1,0,0:0:0:0:
192,192,122987,1,0,0:0:0:0:
448,192,123137,1,0,0:0:0:0:
320,192,123437,128,0,123737:0:0:0:0:
192,192,123737,128,0,124037:0:0:0:0:
448,192,124037,128,0,124337:0:0:0:0:
192,192,124337,128,0,124637:0:0:0:0:
64,192,124637,128,0,124937:0:0:0:0:
448,192,125087,1,0,0:0:0:0:
192,192,125387,1,0,0:0:0:0:
320,192,125837,128,0,126137:0:0:0:0:
64,192,126137,128,0,126437:0:0:0:0:
448,192,126437,128,0,126737:0:0:0:0:
192,192,126737,128,0,127037:0:0:0:0:
448,192,127037,128,0,127337:0:0:0:0:
192,192,127487,1,0,0:0:0:0:
448,192,127787,1,0,0:0:0:0:
192,192,127937,1,0,0:0:0:0:
448,192,128237,1,0,0:0:0:0:
192,192,128387,128,0,129587:0:0:0:0:
320,192,128537,1,0,0:0:0:0:
64,192,128837,1,0,0:0:0:0:
448,192,129137,1,0,0:0:0:0:
448,192,129437,1,0,0:0:0:0:
64,192,129587,128,0,129887:0:0:0:0:
320,192,130187,128,0,130487:0:0:0:0:
192,192,130787,128,0,131087:0:0:0:0:
448,192,131387,128,0,131687:0:0:0:0:
64,192,131987,128,0,132287:0:0:0:0:
320,192,132587,128,0,132887:0:0:0:0:
192,192,133187,128,0,133487:0:0:0:0:
448,192,133787,128,0,134087:0:0:0:0:
64,192,134387,128,0,134687:0:0:0:0:
448,192,134987,128,0,135287:0:0:0:0:
320,192,135587,128,0,135887:0:0:0:0:
192,192,136187,128,0,136487:0:0:0:0:
448,192,136787,1,0,0:0:0:0:
64,192,137087,1,0,0:0:0:0:
448,192,137387,1,0,0:0:0:0:
192,192,137687,1,0,0:0:0:0:
64,192,137987,1,0,0:0:0:0:
448,192,138137,1,0,0:0:0:0:
320,192,138287,1,0,0:0:0:0:
64,192,138437,1,0,0:0:0:0:
192,192,138587,1,0,0:0:0:0:
448,192,138737,1,0,0:0:0:0:
192,192,138887,128,0,139187:0:0:0:0:
448,192,139187,128,0,139487:0:0:0:0:
192,192,139787,128,0,140087:0:0:0:0:
320,192,140387,128,0,140687:0:0:0:0:
64,192,140987,128,0,141287:0:0:0:0:
320,192,141587,128,0,141887:0:0:0:0:
448,192,142187,128,0,142487:0:0:0:0:
64,192,142787,128,0,143087:0:0:0:0:
320,192,143387,128,0,143687:0:0:0:0:
192,192,143987,128,0,144887:0:0:0:0:
320,192,144887,1,0,0:0:0:0:
448,192,145187,128,0,146087:0:0:0:0:
64,192,146087,1,0,0:0:0:0:
192,192,146387,128,0,147287:0:0:0:0:
448,192,147287,1,0,0:0:0:0:
320,192,147587,128,0,148487:0:0:0:0:
192,192,148487,1,0,0:0:0:0:
64,192,148787,128,0,150887:0:0:0:0:
320,192,149087,1,0,0:0:0:0:
320,192,149687,1,0,0:0:0:0:
320,192,150287,1,0,0:0:0:0:
320,192,150887,1,0,0:0:0:0:
192,192,151187,1,0,0:0:0:0:
448,192,151337,128,0,152387:0:0:0:0:
192,192,151487,1,0,0:0:0:0:
192,192,152087,1,0,0:0:0:0:
64,192,152387,1,0,0:0:0:0:
192,192,152687,1,0,0:0:0:0:
320,192,152987,1,0,0:0:0:0:
64,192,153287,1,0,0:0:0:0:
192,192,153587,128,0,154187:0:0:0:0:
448,192,153587,128,0,154187:0:0:0:0:
