osu file format v5

[General]
AudioFilename: mariolandstarmaze.mp3
AudioLeadIn: 1000
PreviewTime: 29321
Countdown: 1
SampleSet: Normal
StackLeniency: 0.7
Mode: 0
LetterboxInBreaks: 1
SkinPreference:Default
EditorBookmarks: 340,14080,29653,43393
EditorDistanceSpacing: 0.800000011920929

[Metadata]
Title:Star Maze
Artist:Kazumi Totaka
Creator:Gens
Version:Hard
Source:Super Mario Land 2: The Six Golden Coins
Tags:

[Difficulty]
HPDrainRate:5
CircleSize:4
OverallDifficulty:7
SliderMultiplier:1.9
SliderTickRate:4

[Events]
//Background and Video events
0,0,"StarMaze.png"
//Break Periods
//Storyboard Layer 0 (Background)
//Storyboard Layer 1 (Fail)
//Storyboard Layer 2 (Pass)
//Storyboard Layer 3 (Foreground)
//Storyboard Sound Samples
//Background Colour Transformations
3,100,128,128,128

[TimingPoints]
492,458.015267175572,4,1,0,50,1,0
37018,-100,4,1,0,30,0,0
43430,-100,4,1,0,50,0,0

[Colours]
Combo1 : 229,229,229
Combo2 : 150,150,150
Combo3 : 185,185,185
Combo4 : 83,83,83

[HitObjects]
368,192,492,6,0,L|368:80,1,95,2|0
368,264,950,2,0,L|280:352,1,95,8|0
256,336,1293,2,0,B|208:288|312:248|240:184,1,142.5,2|4
344,80,1866,5,8
168,80,2095,1,2
144,192,2324,6,0,L|144:80,1,95,2|0
144,264,2782,2,0,L|232:352,1,95,8|0
256,336,3125,2,0,B|304:288|200:248|272:184,1,142.5,2|4
168,80,3698,5,8
344,80,3927,1,2
432,192,4156,6,0,B|304:128,1,95,2|0
80,192,4614,2,0,B|208:128,1,95,8|0
200,120,4957,2,0,B|256:24|256:216,1,142.5,2|4
344,304,5530,5,8
168,304,5759,1,2
80,192,5988,6,0,B|208:128,1,95,2|0
432,192,6446,2,0,B|304:128,1,95,8|0
312,120,6789,2,0,B|256:24|256:216,1,142.5,2|4
168,304,7362,5,8
344,304,7591,1,2
256,304,7820,6,0,B|256:184,1,95,2|0
256,80,8278,2,0,B|256:200,1,95,8|0
288,192,8621,2,0,B|440:192,1,142.5,2|4
432,80,9194,5,8
432,304,9423,1,2
256,304,9652,6,0,B|256:184,1,95,2|0
256,80,10110,2,0,B|256:200,1,95,8|0
224,192,10453,2,0,B|72:192,1,142.5,2|4
80,80,11026,5,8
80,304,11255,1,2
256,192,11484,12,4,13316
32,192,14232,5,0
256,88,14690,1,2
480,192,15148,1,6
256,352,15606,1,0
256,352,15835,2,2,B|208:264|256:160,4,190,2|0|0|0|2
256,352,17896,5,4
344,192,18240,1,2
168,192,18583,1,2
201,124,18812,2,0,B|210:35|308:35|316:138,1,190,4|0
376,168,19499,2,0,B|376:408|136:416|136:136,1,475,4|0
201,124,20873,2,0,B|210:35|308:35|316:138,1,190,4|0
256,192,21560,5,0
408,96,22018,2,2,B|408:304,1,190,2|6
256,48,23163,2,2,B|56:48,3,190,2|0|0|2
64,120,24766,1,0
256,192,25224,1,2
448,264,25682,1,6
256,336,26140,2,2,B|56:208,1,190,2|0
128,168,26827,2,2,B|304:280,4,190,2|0|0|0|2
168,104,28888,2,0,B|344:-8,1,190,4|8
200,296,29804,5,2
312,296,30033,1,0
256,192,30262,1,8
368,192,30491,2,0,B|368:136,1,47.5,0|2
48,192,30950,2,0,B|184:192,1,95,4|8
200,296,31408,1,2
312,296,31637,5,2
200,296,31866,1,0
256,192,32095,1,8
144,192,32324,2,0,B|144:136,1,47.5,0|2
464,192,32783,2,0,B|328:192,1,95,4|8
312,296,33241,1,2
200,296,33469,5,2
256,192,33698,1,0
320,88,33927,1,8
192,88,34156,1,0
192,88,34270,2,0,B|160:152|184:232,1,142.5,2|4
312,296,34843,1,8
200,296,35072,1,2
312,296,35301,5,2
256,192,35530,1,0
192,88,35759,1,8
320,88,35988,1,0
320,88,36102,2,0,B|352:152|328:232,1,142.5,2|4
200,296,36675,1,8
312,296,36904,1,2
256,192,37133,5,0
320,88,37362,2,0,B|400:168,1,95,0|0
256,192,37820,1,0
256,192,37934,2,0,B|88:192,1,142.5,2|0
184,120,38507,1,0
184,264,38736,1,0
256,192,38965,5,0
192,88,39194,2,0,B|112:168,1,95,0|0
256,192,39652,1,0
256,192,39766,2,0,B|424:192,1,142.5,2|0
328,120,40339,1,0
328,264,40568,1,0
256,192,40797,12,0,42629
168,120,43545,6,0,B|168:16,2,95,0|0|2
208,272,44461,2,0,B|296:200|216:176|336:80,1,190,6|0
352,192,45148,2,2,B|144:192,2,190
352,264,46293,2,0,B|152:264,1,190,4|8
296,152,47209,6,0,B|360:152|360:96|432:96,2,142.5,0|2|2
256,88,48125,2,0,B|176:96|176:216|264:216,1,190,4|0
328,216,48812,2,2,B|408:224|408:344|320:344,2,190,2|2|2
254,215,49957,2,0,B|176:216|176:96|256:88,1,190,4|8
344,359,50873,5,0
344,288,51102,1,0
344,216,51331,1,2
256,36,51789,2,0,B|168:124,1,95,4|0
184,176,52247,1,0
186,250,52476,2,2,B|136:336|40:368,2,190
184,176,53621,2,0,B|352:8,1,190,4|8
256,336,54537,1,2
194,41,54995,1,2
216,160,55453,6,0,B|216:288,1,95,4|0
256,320,55911,1,0
296,256,56140,2,2,B|296:56,2,190
256,320,57285,1,4
256,192,57400,12,4,59117
