osu file format v5

[General]
AudioFilename: mariolandstarmaze.mp3
AudioLeadIn: 1000
PreviewTime: 29321
Countdown: 1
SampleSet: Normal
StackLeniency: 0.7
Mode: 0
LetterboxInBreaks: 1
SkinPreference:Default
EditorBookmarks: 340,14080,29653,43393
EditorDistanceSpacing: 0.800000011920929

[Metadata]
Title:Star Maze
Artist:Kazumi Totaka
Creator:Gens
Version:Easy
Source:Super Mario Land 2: The Six Golden Coins
Tags:

[Difficulty]
HPDrainRate:2
CircleSize:3
OverallDifficulty:4
SliderMultiplier:1.1
SliderTickRate:4

[Events]
//Background and Video events
0,0,"StarMaze.png"
//Break Periods
//Storyboard Layer 0 (Background)
//Storyboard Layer 1 (Fail)
//Storyboard Layer 2 (Pass)
//Storyboard Layer 3 (Foreground)
//Storyboard Sound Samples
//Background Colour Transformations
3,100,128,128,128

[TimingPoints]
492,458.015267175572,4,1,0,50,1,0
37018,-100,4,1,0,30,0,0
43430,-100,4,1,0,50,0,0

[Colours]
Combo1 : 229,229,229
Combo2 : 150,150,150
Combo3 : 185,185,185
Combo4 : 83,83,83

[HitObjects]
192,192,492,5,2
96,136,950,1,8
192,82,1408,2,0,B|192:202,1,110,4|8
320,192,2324,5,2
416,248,2782,1,8
320,302,3240,2,0,B|320:182,1,110,4|8
256,88,4156,5,2
160,152,4614,1,8
158,39,5072,2,0,B|270:95,1,110,4|8
254,193,5988,5,2
350,257,6446,1,8
352,144,6904,2,0,B|240:200,1,110,4|8
144,192,7820,5,2
216,112,8278,1,8
280,192,8736,1,4
352,112,9194,1,8
352,272,9652,5,2
280,192,10110,1,8
216,272,10568,1,4
144,192,11026,1,8
256,192,11484,12,4,13316
48,168,14232,5,0
256,192,15148,1,6
464,208,16064,2,2,B|464:352|312:352,2,220,2|2|0
256,192,18812,5,6
48,176,19728,2,2,B|48:32|200:32,2,220,2|2|0
256,96,22476,5,6
256,288,23392,1,0
256,96,24308,1,4
464,208,25224,5,2
256,288,26140,1,6
256,96,27056,1,0
256,288,27972,1,4
472,128,29804,5,2
400,168,30262,1,8
328,208,30721,1,4
256,248,31179,1,8
256,248,31637,5,2
184,208,32095,1,8
112,168,32554,1,4
40,128,33012,1,8
112,88,33469,6,0,B|168:48|232:99,1,110,2|8
256,192,34385,2,0,B|312:232|376:181,1,110,4|8
400,88,35301,6,0,B|344:48|280:99,1,110,2|8
256,192,36217,2,0,B|200:232|136:181,1,110,4|8
40,192,37133,6,0,L|32:40|240:40,1,330,2|0
294,40,38965,6,0,L|480:40|472:192,1,330,2|0
256,192,40797,12,0,42629
256,40,43545,5,0
256,344,44461,1,6
280,192,45377,2,2,L|408:192,3,110,2|0|2|2
472,192,47209,5,0
40,192,48125,1,6
255,191,49041,2,2,L|178:114,3,110,2|0|2|2
120,56,50873,5,0
392,328,51789,1,6
312,192,52705,2,2,B|184:192,3,110,2|0|2|2
120,192,54537,5,4
120,192,54995,1,8
120,112,55453,2,2,B|120:0|288:0,1,220,2|4
256,192,56484,12,4,59117
