osu file format v14

[General]
AudioFilename: MiiMusic.mp3
AudioLeadIn: 0
PreviewTime: 18023
Countdown: 0
SampleSet: Soft
StackLeniency: 0.7
Mode: 0
LetterboxInBreaks: 0
WidescreenStoryboard: 0

[Editor]
Bookmarks: 18023,26431,34836,51648
DistanceSpacing: 1.1
BeatDivisor: 4
GridSize: 4
TimelineZoom: 0.6

[Metadata]
Title:Mii Plaza
TitleUnicode:Mii Plaza
Artist:Kazumi Totaka
ArtistUnicode:戸高 一生
Creator:ayygurl
Version:Normal
Source:Mii Channel
Tags:wii nintendo
BeatmapID:822694
BeatmapSetID:375668

[Difficulty]
HPDrainRate:3
CircleSize:3.5
OverallDifficulty:3
ApproachRate:3.9
SliderMultiplier:1.4
SliderTickRate:1

[Events]
//Background and Video events
0,0,"1831387581-anime-scenery-pictures-euixayr-58qx-58qx-1366x768-MM-78.jpg",0,0
//Break Periods
//Storyboard Layer 0 (Background)
//Storyboard Layer 1 (Fail)
//Storyboard Layer 2 (Pass)
//Storyboard Layer 3 (Foreground)
//Storyboard Sound Samples

[TimingPoints]
1213,525.394045534151,4,2,1,30,1,0
34050,-99.9999999999999,4,2,1,18,0,0
34312,-99.9999999999999,4,2,1,30,0,0
34575,-99.9999999999999,4,2,1,18,0,0
34838,-100,4,2,1,30,0,0
37990,-100,4,2,1,18,0,0
39041,-100,4,2,1,30,0,0

[Colours]
Combo1 : 253,181,251
Combo2 : 201,147,255
Combo3 : 157,157,255

[HitObjects]
84,76,162,6,0,P|120:96|220:84,1,140
364,48,1213,6,0,P|312:92|336:160,1,140,2|8,0:0|0:0,0:0:0:0:
396,192,2001,1,0,0:0:0:0:
468,164,2263,1,0,0:0:0:0:
500,232,2526,2,0,P|512:300|492:376,1,140,8|0,0:0|0:0,0:0:0:0:
424,344,3314,6,0,L|354:350,1,70,0|8,0:0|0:0,0:0:0:0:
288,312,3839,2,0,L|280:228,1,70
328,180,4365,2,0,P|356:152|304:64,1,140,0|8,0:0|0:0,0:0:0:0:
252,96,5153,1,0,0:0:0:0:
252,96,5416,6,0,L|104:104,1,140,2|8,0:0|0:0,0:0:0:0:
60,160,6204,1,0,0:0:0:0:
108,220,6466,1,0,0:0:0:0:
84,292,6729,2,0,P|132:316|236:308,1,140,8|0,0:0|0:0,0:0:0:0:
292,336,7517,5,0,0:0:0:0:
292,336,7780,2,0,L|304:180,1,140,8|0,0:0|0:0,0:0:0:0:
252,136,8568,2,0,L|156:144,1,70
160,68,9093,2,0,L|229:62,1,70,8|0,0:0|0:0,0:0:0:0:
300,28,9619,6,0,P|352:44|448:36,1,140,2|8,0:0|0:0,0:0:0:0:
484,100,10407,2,0,L|490:169,1,70
464,244,10932,2,0,P|452:308|376:320,1,140,8|0,0:0|0:0,0:0:0:0:
344,260,11720,5,0,0:0:0:0:
268,240,11983,2,0,P|200:252|112:216,1,140,8|0,0:0|0:0,0:0:0:0:
60,208,12771,2,0,P|39:274|51:342,1,140,0|8,0:0|0:0,0:0:0:0:
128,332,13559,1,0,0:0:0:0:
204,316,13822,6,0,P|276:336|336:296,1,140,2|8,0:0|0:0,0:0:0:0:
400,332,14610,2,0,L|476:328,1,70
496,256,15135,2,0,P|504:192|476:108,1,140,8|0,0:0|0:0,0:0:0:0:
416,160,15924,5,0,0:0:0:0:
416,160,16186,2,0,P|395:93|403:24,1,140,8|0,0:0|0:0,0:0:0:0:
324,28,16974,1,8,0:0:0:0:
248,40,17237,1,8,0:0:0:0:
192,96,17500,1,8,0:0:0:0:
96,212,18025,6,0,P|117:278|108:346,1,140
184,360,18813,2,0,P|264:368|336:336,1,140
412,224,19864,1,0,0:0:0:0:
360,168,20127,2,0,L|372:92,2,70
184,76,21966,5,0,0:0:0:0:
116,116,22228,2,0,L|112:204,1,70
176,232,22754,2,0,L|172:320,1,70
308,232,23542,2,0,P|380:252|456:236,1,140
480,172,24330,6,0,B|484:112|484:112|424:20,1,140
364,32,25118,1,0,0:0:0:0:
292,64,25381,2,0,L|132:72,1,140
40,176,26431,6,0,P|73:234|140:239,1,140,2|8,0:0|0:0,0:0:0:0:
216,240,27220,2,0,P|283:244|316:302,1,140
460,248,28270,2,0,L|464:104,1,140,0|8,0:0|0:0,0:0:0:0:
324,44,29321,1,0,0:0:0:0:
324,44,29584,2,0,L|156:32,1,140,0|8,0:0|0:0,0:0:0:0:
52,112,30635,6,8,L|132:176,1,70,10|8,0:0|0:0,0:0:0:0:
168,204,31160,1,8,0:0:0:0:
472,260,32211,6,8,L|392:196,1,70,10|8,0:0|0:0,0:0:0:0:
356,168,32736,1,8,0:0:0:0:
84,24,33787,6,0,L|164:28,1,70
156,104,34312,2,0,L|86:100,1,70
32,156,34838,6,0,P|52:216|40:296,1,140,2|0,0:0|0:0,0:0:0:0:
116,316,35626,2,0,L|268:324,1,140,8|0,0:0|0:0,0:0:0:0:
332,188,36677,1,0,0:0:0:0:
400,152,36939,6,0,P|436:136|480:144,2,70
268,68,37990,2,8,P|264:36|280:0,2,70
220,216,39041,6,0,L|124:224,1,70,2|0,0:0|0:0,0:0:0:0:
76,200,39566,2,0,L|-20:208,1,70,0|8,0:0|0:0,0:0:0:0:
48,56,40354,2,0,P|96:100|164:76,1,140
232,48,41142,6,0,P|332:40|400:60,1,140
304,184,42193,2,0,P|372:194|441:184,1,140
356,56,43244,5,2,0:0:0:0:
292,100,43507,1,0,0:0:0:0:
216,84,43769,1,8,0:0:0:0:
160,32,44032,2,0,P|88:40|56:112,1,140,0|8,0:0|0:0,0:0:0:0:
92,164,44820,2,0,L|96:260,1,70
164,272,45346,6,0,L|166:341,2,70,2|0|8,0:0|0:0|0:0,0:0:0:0:
236,244,46134,2,0,P|300:268|380:240,1,140,0|8,0:0|0:0,0:0:0:0:
444,232,46922,2,0,L|446:163,1,70
436,84,47447,5,10,0:0:0:0:
380,28,47710,1,8,0:0:0:0:
304,16,47973,1,8,0:0:0:0:
60,312,49286,6,0,L|129:308,1,70
192,264,49811,2,0,L|261:260,1,70
328,220,50337,2,0,L|397:216,1,70
