osu file format v14

[General]
AudioFilename: 7PM (Extended) - Animal Crossing- New Leaf Music.mp3
AudioLeadIn: 0
PreviewTime: 4948
Countdown: 0
SampleSet: Normal
StackLeniency: 0.5
Mode: 0
LetterboxInBreaks: 0
WidescreenStoryboard: 0

[Editor]
Bookmarks: 4948,7154,12890,14213,21272,26566
DistanceSpacing: 1.2
BeatDivisor: 2
GridSize: 32
TimelineZoom: 1.5

[Metadata]
Title:7 P.M.
TitleUnicode:7 P.M.
Artist:Kazumi Totaka
ArtistUnicode:戸高一生
Creator:PolkaMocha
Version:Advanced Evening
Source:Animal Crossing: New Leaf
Tags:PM nintendo game slow calm instrumental squirrel
BeatmapID:769775
BeatmapSetID:231483

[Difficulty]
HPDrainRate:5
CircleSize:4
OverallDifficulty:5
ApproachRate:6
SliderMultiplier:1.5
SliderTickRate:1

[Events]
//Background and Video events
0,0,"bg.jpg",0,0
//Break Periods
2,38237,41398
2,80590,83751
//Storyboard Layer 0 (Background)
//Storyboard Layer 1 (Fail)
//Storyboard Layer 2 (Pass)
//Storyboard Layer 3 (Foreground)
//Storyboard Sound Samples

[TimingPoints]
96,441.176470588235,4,1,1,20,1,0
4948,-125,4,1,1,15,0,0
5279,-125,4,1,1,5,0,0
5390,-125,4,1,1,15,0,0
5831,-125,4,1,1,5,0,0
6272,-125,4,1,1,10,0,0
6713,-125,4,1,1,5,0,0
6934,-125,4,1,1,5,0,0
7154,-100,4,1,1,40,0,1
12890,-100,4,1,1,40,0,1
14213,-100,4,1,1,30,0,0
35390,-158.730158730159,4,1,1,10,0,0
47301,-125,4,1,1,15,0,0
47632,-125,4,1,1,5,0,0
47743,-125,4,1,1,15,0,0
48184,-125,4,1,1,5,0,0
48515,-125,4,1,1,5,0,0
48625,-125,4,1,1,10,0,0
49066,-125,4,1,1,5,0,0
49287,-125,4,1,1,5,0,0
49507,-100,4,1,1,40,0,1
55243,-100,4,1,1,40,0,1
56566,-100,4,1,1,30,0,0
77743,-158.730158730159,4,1,1,10,0,0

[Colours]
Combo1 : 130,130,130
Combo2 : 128,0,0
Combo3 : 128,64,0
Combo4 : 125,0,63
Combo5 : 88,39,81
Combo6 : 64,0,128
Combo7 : 0,0,160
SliderBorder : 255,165,0

[HitObjects]
291,241,4948,102,0,P|249:253|199:243,1,90,0|0,0:2|0:2,0:2:0:0:
182,224,5390,2,0,P|152:151|238:68,1,210,0|0,0:2|0:2,0:2:0:0:
265,76,6272,2,0,B|315:95|315:95|396:88|396:88|438:102,1,180,0|0,0:2|0:2,0:2:0:0:
488,178,7154,6,0,P|492:216|481:251,1,75,12|0,0:2|0:2,0:2:0:0:
360,274,7595,2,0,P|355:236|366:201,1,75,2|0,0:2|0:2,0:2:0:0:
434,319,8037,1,8,0:2:0:0:
258,357,8478,5,2,0:2:0:0:
251,177,8919,1,8,0:2:0:0:
398,73,9360,6,0,P|400:109|386:153,1,75,2|8,0:2|0:2,0:2:0:0:
251,177,9801,2,0,P|245:103|323:118,1,150,8|2,0:2|0:2,0:2:0:0:
462,184,10684,6,0,P|437:210|396:232,1,75,8|0,0:2|0:2,0:2:0:0:
294,164,11125,2,0,P|332:108|388:145,1,150,2|8,0:2|0:2,0:2:0:0:
263,275,12007,5,2,0:2:0:0:
236,96,12448,1,8,0:2:0:0:
61,55,12890,5,2,0:2:0:0:
21,215,13331,1,10,0:2:0:0:
65,374,13772,1,10,0:2:0:0:
228,351,14213,22,0,L|302:358,1,75,12|0,0:2|0:2,0:2:0:0:
361,268,14654,2,0,L|286:274,1,75,2|0,0:2|0:2,0:2:0:0:
228,351,15096,1,8,0:2:0:0:
430,327,15537,5,2,0:2:0:0:
422,147,15978,1,8,0:2:0:0:
242,133,16419,6,0,B|189:137|189:137|134:124|134:124|93:127,1,150,2|8,0:2|0:2,0:2:0:0:
27,295,17301,6,0,L|101:303,1,75,2|0,0:2|0:2,0:2:0:0:
230,268,17743,2,0,P|263:203|243:132,1,150,8|2,0:2|0:2,0:2:0:0:
230,268,18625,6,0,L|304:276,1,75,8|0,0:2|0:2,0:2:0:0:
378,155,19066,2,0,P|315:117|243:132,1,150,2|8,0:2|0:2,0:2:0:0:
218,310,19948,5,2,0:2:0:0:
218,310,20390,1,8,0:2:0:0:
218,310,20831,1,2,0:2:0:0:
397,296,21272,22,0,L|418:212,1,75,12|0,0:2|0:2,0:2:0:0:
307,134,21713,2,0,L|326:207,1,75,2|0,0:2|0:2,0:2:0:0:
403,136,22154,1,8,0:2:0:0:
247,45,22595,6,0,P|202:46|166:66,1,75,2|0,0:2|0:2,0:2:0:0:
200,192,23037,2,0,P|221:152|222:111,1,75,8|0,0:2|0:2,0:2:0:0:
141,134,23478,1,2,0:2:0:0:
133,313,23919,6,0,P|201:331|282:301,1,150,8|2,0:2|0:2,0:2:0:0:
386,165,24801,6,0,P|349:159|308:167,1,75,8|0,0:2|0:2,0:2:0:0:
273,305,25242,2,0,P|341:315|351:248,1,150,2|8,0:2|0:2,0:2:0:0:
282,81,26125,6,0,P|251:102|228:137,1,75,2|0,0:2|0:2,0:2:0:0:
298,260,26566,2,0,P|352:219|311:164,2,150,8|2|8,0:2|0:2|0:2,0:2:0:0:
118,243,27890,1,2,0:2:0:0:
268,342,28331,6,0,P|303:353|343:349,1,75,12|0,0:2|0:2,0:2:0:0:
391,255,28772,2,0,P|356:244|316:248,1,75,2|0,0:2|0:2,0:2:0:0:
415,328,29213,1,8,0:2:0:0:
428,179,29654,22,0,B|445:87|445:87|423:26,1,150,2|8,0:2|0:2,0:2:0:0:
343,204,30537,2,0,P|370:248|469:258,1,150,2|8,0:2|0:2,0:2:0:0:
355,116,31419,6,0,P|317:119|282:139,1,75,2|0,0:2|0:2,0:2:0:0:
253,262,31860,2,0,P|321:269|342:203,1,150,8|2,0:2|0:2,0:2:0:0:
169,112,32743,6,0,P|128:108|82:127,1,75,8|0,0:2|0:2,0:2:0:0:
122,254,33184,2,0,P|185:288|252:261,1,150,2|8,0:2|0:2,0:2:0:0:
377,129,34066,5,2,0:2:0:0:
253,259,34507,1,2,0:2:0:0:
162,103,34948,1,2,0:2:0:0:
312,95,35390,6,0,B|395:58|497:111|477:220|455:243|455:243|401:260|401:260|383:304|383:304|323:313|259:272|257:196,1,566.999982696534,12|0,0:2|0:2,0:2:0:0:
256,192,42448,6,0,B|256:276|256:276|130:297|87:192|130:83|256:101|256:101|292:74|292:74|306:117|358:138,1,566.999982696534,8|2,0:2|0:2,0:2:0:0:
348,133,47301,6,0,P|304:151|256:147,1,90,0|0,0:2|0:2,0:2:0:0:
225,150,47743,2,0,P|152:216|187:309,1,210,0|0,0:2|0:2,0:2:0:0:
222,320,48625,2,0,B|279:337|323:273|323:273|335:307|359:319,1,180,0|0,0:2|0:2,0:2:0:0:
458,229,49507,6,0,P|468:193|464:156,1,75,12|0,0:2|0:2,0:2:0:0:
375,71,49948,2,0,P|364:106|369:143,1,75,2|0,0:2|0:2,0:2:0:0:
465,46,50390,1,8,0:2:0:0:
285,29,50831,5,2,0:2:0:0:
105,45,51272,1,8,0:2:0:0:
41,213,51713,6,0,P|39:249|53:293,1,75,2|0,0:2|0:2,0:2:0:0:
183,319,52154,2,0,P|195:252|128:239,1,150,8|2,0:2|0:2,0:2:0:0:
12,364,53037,6,0,P|47:372|89:363,1,75,8|0,0:2|0:2,0:2:0:0:
129,231,53478,2,0,P|62:218|49:285,1,150,2|8,0:2|0:2,0:2:0:0:
205,371,54360,5,2,0:2:0:0:
384,368,54801,1,8,0:2:0:0:
508,237,55243,5,2,0:2:0:0:
512,89,55684,1,10,0:2:0:0:
385,11,56125,1,2,0:2:0:0:
236,28,56566,22,0,P|229:69|243:116,1,75,12|0,0:2|0:2,0:2:0:0:
334,200,57007,2,0,P|341:159|327:112,1,75,2|0,0:2|0:2,0:2:0:0:
224,199,57449,1,8,0:2:0:0:
341,335,57890,5,2,0:2:0:0:
506,264,58331,1,8,0:2:0:0:
462,91,58772,6,0,P|390:81|333:126,1,150,2|8,0:2|0:2,0:2:0:0:
250,286,59654,6,0,P|217:320|180:334,1,75,2|0,0:2|0:2,0:2:0:0:
87,258,60096,2,0,P|120:201|171:243,1,150,8|2,0:2|0:2,0:2:0:0:
321,353,60978,6,0,P|359:363|395:361,1,75,8|0,0:2|0:2,0:2:0:0:
439,230,61419,2,0,P|371:200|300:219,1,150,2|8,0:2|0:2,0:2:0:0:
189,361,62301,5,2,0:2:0:0:
189,361,62743,1,8,0:2:0:0:
189,361,63184,1,2,0:2:0:0:
63,232,63625,22,0,P|61:198|80:157,1,75,12|0,0:2|0:2,0:2:0:0:
213,188,64066,2,0,P|184:206|139:210,1,75,2|0,0:2|0:2,0:2:0:0:
152,121,64507,1,8,0:2:0:0:
331,118,64948,6,0,L|415:126,1,75,2|0,0:2|0:2,0:2:0:0:
483,221,65390,2,0,L|408:228,1,75,8|0,0:2|0:2,0:2:0:0:
405,125,65831,1,2,0:2:0:0:
481,312,66272,6,0,L|330:327,1,150,8|2,0:2|0:2,0:2:0:0:
181,228,67154,6,0,P|195:197|230:172,1,75,8|0,0:2|0:2,0:2:0:0:
334,191,67595,2,0,P|360:259|331:326,1,150,2|8,0:2|0:2,0:2:0:0:
115,270,68478,6,0,P|102:238|110:195,1,75,2|0,0:2|0:2,0:2:0:0:
218,131,68919,2,0,P|284:160|310:228,2,150,8|2|8,0:2|0:2|0:2,0:2:0:0:
214,311,70243,1,2,0:2:0:0:
393,321,70684,6,0,L|468:310,1,75,12|0,0:2|0:2,0:2:0:0:
511,211,71125,2,0,L|436:200,1,75,2|0,0:2|0:2,0:2:0:0:
374,107,71566,1,8,0:2:0:0:
220,216,72007,22,0,P|148:233|81:202,1,150,2|8,0:2|0:2,0:2:0:0:
165,41,72890,2,0,P|236:24|304:55,1,150,2|8,0:2|0:2,0:2:0:0:
356,246,73772,6,0,P|326:264|283:269,1,75,2|0,0:2|0:2,0:2:0:0:
194,214,74213,2,0,P|233:157|297:185,1,150,8|2,0:2|0:2,0:2:0:0:
176,349,75096,6,0,L|82:342,1,75,8|0,0:2|0:2,0:2:0:0:
62,208,75537,2,0,P|129:179|194:214,1,150,2|8,0:2|0:2,0:2:0:0:
340,368,76419,5,2,0:2:0:0:
475,250,76860,1,2,0:2:0:0:
390,91,77301,1,2,0:2:0:0:
242,176,77743,6,0,B|139:134|62:266|149:359|249:322|249:322|258:278|258:278|324:268|345:204|345:204|391:253,1,566.999982696534,12|0,0:2|0:2,0:2:0:0:
392,254,84801,6,0,B|383:229|357:218|357:218|354:211|474:227|482:102|399:71|359:97|359:97|346:47|255:22|184:137|300:199|290:241,1,566.999982696534,8|2,0:2|0:2,0:2:0:0:
