osu file format v12

[General]
AudioFilename: Sakura Happy Innovation.mp3
AudioLeadIn: 0
PreviewTime: 48973
Countdown: 0
SampleSet: Soft
StackLeniency: 0.7
Mode: 0
LetterboxInBreaks: 0
WidescreenStoryboard: 0

[Editor]
DistanceSpacing: 1
BeatDivisor: 4
GridSize: 4

[Metadata]
Title:Sakura Happy Innovation (TV Size)
TitleUnicode:サクラハッピーイノベーション (TV Size)
Artist:Kazami Gakuen Shinbunbu
ArtistUnicode:風見学園新聞部
Creator:Sekai-nyan
Version:Easy
Source:D.C.III ~ダ・カーポIII~
Tags:circus opening Sekai alacat Momochikun Nichiyouki nich95 cherry blossom Nitta Emi Miyazaki Ui Sasaki Mikoi Ousaki Chiyo Kaiho Erika Sakura Da capo
BeatmapID:316444
BeatmapSetID:124051

[Difficulty]
HPDrainRate:2
CircleSize:3
OverallDifficulty:2
ApproachRate:3
SliderMultiplier:0.8
SliderTickRate:1

[Events]
//Background and Video events
Video,310,"OP.avi"
0,0,"BG.jpg",0,0
//Break Periods
//Storyboard Layer 0 (Background)
//Storyboard Layer 1 (Fail)
//Storyboard Layer 2 (Pass)
//Storyboard Layer 3 (Foreground)
//Storyboard Sound Samples
//Background Colour Transformations
3,100,163,162,255

[TimingPoints]
807,370.37037037037,4,2,1,70,1,0
7103,-100,4,2,3,70,0,0
7195,-100,4,2,1,70,0,0
8584,-100,4,2,3,70,0,0
8677,-100,4,2,1,70,0,0
9325,-100,4,2,3,70,0,0
9418,-100,4,2,1,70,0,0
19695,-100,4,2,2,70,0,0
19788,-100,4,2,1,70,0,0
21177,-100,4,2,2,70,0,0
21269,-100,4,2,1,70,0,0
24881,-100,4,2,2,70,0,0
24973,-100,4,2,1,70,0,0
32288,-100,4,2,2,70,0,0
32381,-100,4,2,1,70,0,0
35251,-100,4,2,2,70,0,0
35344,-100,4,2,1,70,0,0
38214,-100,4,2,2,70,0,0
38306,-100,4,2,1,70,0,0
39695,-100,4,2,2,70,0,0
39788,-100,4,2,1,70,0,0
45621,-100,4,2,3,70,0,0
45714,-100,4,2,1,70,0,0
49695,-100,4,2,1,70,0,1
50066,-100,4,2,2,70,0,1
50158,-100,4,2,1,70,0,1
51547,-100,4,2,2,70,0,1
51640,-100,4,2,1,70,0,1
53029,-100,4,2,2,70,0,1
53121,-100,4,2,1,70,0,1
54510,-100,4,2,2,70,0,1
54603,-100,4,2,1,70,0,1
55992,-100,4,2,2,70,0,1
56084,-100,4,2,1,70,0,1
57473,-100,4,2,2,70,0,1
57566,-100,4,2,1,70,0,1
60436,-100,4,2,2,70,0,1
60529,-100,4,2,1,70,0,1
64140,-100,4,2,2,70,0,1
64232,-100,4,2,1,70,0,1
66362,-100,4,2,2,70,0,1
66455,-100,4,2,1,70,0,1
67844,-100,4,2,2,70,0,1
67936,-100,4,2,1,70,0,1
69325,-100,4,2,2,70,0,1
69418,-100,4,2,1,70,0,1
76362,-100,4,2,1,70,0,0
79695,-100,4,2,2,70,0,0
79788,-100,4,2,1,70,0,0
81177,-100,4,2,2,70,0,0
81269,-100,4,2,1,70,0,0

[Colours]
Combo1 : 57,79,165
Combo2 : 72,216,183
Combo3 : 232,173,241
Combo4 : 228,98,136
Combo5 : 72,172,206
Combo6 : 9,139,247
Combo7 : 250,204,57
Combo8 : 255,226,255
SliderBorder : 240,240,240

[HitObjects]
104,332,807,1,4,0:0:0:0:
64,264,1177,2,0,P|40:192|84:120,1,160,8|8,0:0|0:0,0:0:0:0:
116,52,2288,1,0,0:0:0:0:
168,112,2658,2,0,P|208:136|308:96,1,160,8|8,0:0|0:0,0:0:0:0:
372,52,3769,5,4,0:0:0:0:
396,128,4140,2,0,B|396:208|396:208|448:292,1,160,8|8,0:0|0:0,0:0:0:0:
384,336,5251,1,0,0:0:0:0:
316,296,5621,2,0,L|232:296,1,80,8|0,0:0|0:0,0:0:0:0:
168,336,6362,1,8,0:0:0:0:
156,256,6732,6,0,B|192:224|188:180|188:180|164:108,1,160,4|8,0:0|0:0,0:0:0:0:
216,48,7844,1,8,0:0:0:0:
276,104,8214,2,0,P|348:136|428:96,2,160,8|8|4,0:0|0:0|0:0,0:0:0:0:
256,192,10066,12,4,12288,0:0:0:0:
76,332,13029,6,0,P|56:256|100:192,1,160,0|0,1:0|1:0,0:0:0:0:
140,124,14140,1,0,0:0:0:0:
200,176,14510,2,0,P|252:192|320:120,1,160,0|0,1:0|1:0,0:0:0:0:
348,48,15621,5,4,0:0:0:0:
404,104,15992,2,0,P|460:156|448:244,1,160,0|0,1:0|1:0,0:0:0:0:
380,264,17103,2,0,L|300:264,1,80,0|0,0:0|1:0,0:0:0:0:
300,344,17844,2,0,L|380:344,2,80,0|0|4,0:0|1:0|0:0,0:0:0:0:
244,288,18955,6,0,P|189:265|127:285,2,120,0|0|0,1:0|0:0|0:0,0:0:0:0:
184,348,20436,2,0,P|128:368|68:344,2,120,0|0|4,1:0|0:0|0:0,0:0:0:0:
244,288,21918,6,0,P|236:240|328:188,1,160,0|0,1:0|1:0,0:0:0:0:
396,200,23029,2,0,P|392:152|373:127,2,80,0|0|0,0:0|1:0|0:0,0:0:0:0:
464,240,24140,1,0,1:0:0:0:
404,292,24510,6,0,P|372:356|284:360,1,160,4|0,0:0|0:0,0:0:0:0:
256,292,25621,1,0,1:0:0:0:
184,260,25992,2,0,P|144:276|96:260,1,80,0|0,0:0|1:0,0:0:0:0:
60,200,26732,2,0,P|100:188|148:200,1,80,0|0,0:0|1:0,0:0:0:0:
160,120,27473,5,4,0:0:0:0:
240,120,27844,2,0,P|288:132|344:48,1,160,0|0,1:0|1:0,0:0:0:0:
424,52,28955,1,0,0:0:0:0:
440,132,29325,2,0,B|408:208|408:208|464:280,1,160,0|0,1:0|1:0,0:0:0:0:
400,328,30436,5,4,0:0:0:0:
328,292,30806,2,0,B|272:280|232:304|232:304|192:296|176:256,1,160,0|0,1:0|1:0,0:0:0:0:
232,208,31918,2,0,P|175:192|123:219,2,120,0|0|0,0:0|0:0|1:0,0:0:0:0:
256,132,33399,5,4,0:0:0:0:
320,84,33769,2,0,L|404:84,1,80,0|0,1:0|0:0,0:0:0:0:
468,128,34510,1,0,1:0:0:0:
420,192,34881,2,0,P|396:244|412:308,2,120,0|0|0,0:0|0:0|1:0,0:0:0:0:
468,128,36362,5,4,0:0:0:0:
320,64,37103,1,0,0:0:0:0:
228,192,37844,2,0,B|144:192|144:192|128:156|88:140,1,160,4|0,0:0|0:0,0:0:0:0:
68,220,38955,1,0,1:0:0:0:
28,288,39325,6,0,B|68:312|112:288|112:288|184:316,1,160,4|0,0:0|0:0,0:0:0:0:
244,360,40436,1,8,0:0:0:0:
304,308,40806,2,0,P|296:264|312:228,1,80,4|0,0:0|1:0,0:0:0:0:
376,192,41547,1,0,0:0:0:0:
396,116,41918,1,0,1:0:0:0:
312,120,42288,6,0,L|216:120,1,80,4|0,0:0|1:0,0:0:0:0:
152,108,43029,1,0,0:0:0:0:
112,40,43399,1,0,1:0:0:0:
64,104,43769,6,0,P|52:144|64:188,1,80,0|0,0:0|1:0,0:0:0:0:
44,260,44510,2,0,P|86:260|123:235,1,80,0|0,0:0|1:0,0:0:0:0:
176,192,45251,2,0,B|256:192|256:192|312:132,1,160,8|8,0:0|0:0,0:0:0:0:
360,68,46362,1,8,0:0:0:0:
396,140,46732,6,0,P|436:208|400:288,1,160,4|4,0:0|0:0,0:0:0:0:
340,320,47844,1,0,0:0:0:0:
136,192,48955,6,0,P|100:204|48:188,1,80,0|8,0:0|0:0,0:0:0:0:
92,120,49695,6,0,P|168:112|220:184,1,160,4|0,0:0|0:0,0:0:0:0:
248,244,50806,1,0,1:0:0:0:
264,324,51177,2,0,B|316:316|332:256|332:256|356:276|396:272,1,160
452,228,52288,1,0,1:0:0:0:
380,192,52658,6,0,P|352:148|287:133,2,120,4|0|0,0:0|0:0|1:0,0:0:0:0:
452,228,54140,2,0,P|476:160|424:88,1,160,2|2,0:0|0:0,0:0:0:0:
376,32,55251,1,0,1:0:0:0:
304,64,55621,6,0,P|248:88|144:60,1,160,4|0,0:0|0:0,0:0:0:0:
76,52,56732,1,0,1:0:0:0:
56,128,57103,2,0,B|56:208|56:208|96:288,1,160,4|0,0:0|0:0,0:0:0:0:
152,332,58214,1,0,1:0:0:0:
228,304,58584,6,0,L|316:304,1,80,4|0,0:0|1:0,0:0:0:0:
376,348,59325,2,0,P|392:308|376:260,1,80,0|0,0:0|1:0,0:0:0:0:
316,228,60066,2,0,P|262:208|234:143,2,120,4|0|0,0:0|0:0|1:0,0:0:0:0:
372,171,61547,5,4,0:0:0:0:
412,104,61918,2,0,L|476:44,2,80,0|0|0,1:0|0:0|1:0,0:0:0:0:
356,48,63029,2,0,L|288:112,1,80,0|0,0:0|1:0,0:0:0:0:
240,44,63769,2,0,B|168:80|168:80|96:44,1,160,0|4,0:0|0:0,0:0:0:0:
20,68,64881,5,0,1:0:0:0:
56,140,65251,2,0,P|76:172|72:228,1,80,0|0,0:0|1:0,0:0:0:0:
24,272,65992,2,0,P|80:292|154:233,1,160,4|2,0:0|0:0,0:0:0:0:
180,160,67103,1,0,1:0:0:0:
244,208,67473,6,0,P|276:160|336:136,2,120,4|0|0,0:0|0:0|1:0,0:0:0:0:
296,268,68955,2,0,P|264:316|204:340,2,120,4|0|0,0:0|0:0|1:0,0:0:0:0:
340,200,70436,5,4,0:0:0:0:
256,64,71177,1,4,0:0:0:0:
172,200,71918,1,4,0:0:0:0:
116,256,72288,2,0,P|64:248|32:224,2,80,0|0|0,1:0|0:0|1:0,0:0:0:0:
256,192,73399,12,4,75992,0:0:0:0:
408,328,76732,6,0,P|436:256|404:180,1,160,0|0,1:0|1:0,0:0:0:0:
352,124,77844,1,0,0:0:0:0:
304,188,78214,2,0,P|248:204|160:144,1,160,0|0,1:0|1:0,0:0:0:0:
88,168,79325,6,0,P|64:216|84:280,2,120,4|0|0,0:0|0:0|1:0,0:0:0:0:
116,92,80806,2,0,P|156:76|232:108,2,120,0|0|8,0:0|0:0|0:0,0:0:0:0:
168,156,82288,6,0,P|256:172|304:112,1,160,4|0,0:0|0:0,0:0:0:0:
356,68,83399,1,2,0:0:0:0:
412,124,83769,2,0,P|456:172|436:272,1,160,0|0,0:0|0:0,0:0:0:0:
396,324,84881,1,2,0:0:0:0:
316,340,85251,5,4,0:0:0:0:
256,236,85806,1,4,0:0:0:0:
196,340,86362,1,12,0:0:0:0:
