osu file format v12

[General]
AudioFilename: DCIII OP.mp3
AudioLeadIn: 1500
PreviewTime: 48865
Countdown: 0
SampleSet: Soft
StackLeniency: 0.7
Mode: 0
LetterboxInBreaks: 0

[Editor]
DistanceSpacing: 2
BeatDivisor: 4
GridSize: 4

[Metadata]
Title:Sakura Happy Innovation (TV Size)
TitleUnicode:サクラハッピーイノベーション (TV Size)
Artist:Kazami Gakuen Shinbunbu
ArtistUnicode:風見学園新聞部
Creator:Licca
Version:Insane
Source:D.C.III ~Da Capo III~
Tags:Nitta Emi Miyazaki Ui Sasaki Mikoi Ousaki Chiyo Kaiho Erika circus opening alacat
BeatmapID:228148
BeatmapSetID:80620

[Difficulty]
HPDrainRate:6
CircleSize:4
OverallDifficulty:7
ApproachRate:8
SliderMultiplier:1.8
SliderTickRate:2

[Events]
//Background and Video events
Video,0,"OP.avi"
0,0,"BG.jpg",0,0
//Break Periods
//Storyboard Layer 0 (Background)
//Storyboard Layer 1 (Fail)
//Storyboard Layer 2 (Pass)
//Storyboard Layer 3 (Foreground)
//Storyboard Sound Samples
//Background Colour Transformations
3,100,163,162,255

[TimingPoints]
825,370.37037037037,4,2,1,80,1,0
13047,-100,4,2,1,60,0,0
23232,-100,4,2,1,50,0,0
24899,-100,4,2,1,60,0,0
36010,-100,4,2,1,50,0,0
36380,-133.333333333333,4,2,1,60,0,0
42306,-100,4,2,1,60,0,0
48232,-133.333333333333,4,2,1,80,0,0
48417,-133.333333333333,4,2,1,10,0,0
48510,-133.333333333333,4,2,1,80,0,0
48556,-133.333333333333,4,2,1,10,0,0
48695,-133.333333333333,4,2,1,80,0,0
48973,-100,4,2,1,80,0,0
49713,-100,4,2,1,80,0,1
74899,-100,4,2,1,50,0,1
76380,-100,4,2,1,70,0,0
82306,-133.333333333333,4,2,1,60,0,0
84158,-100,4,2,1,50,0,0
85269,-100,4,2,1,60,0,0
85824,-100,4,2,1,70,0,0
86380,-100,4,2,1,80,0,0

[Colours]
Combo1 : 246,250,189
Combo2 : 255,255,0
Combo3 : 128,128,192
Combo4 : 255,128,64
Combo5 : 181,106,106

[HitObjects]
116,64,825,1,2,0:0:0:0:
116,64,1195,1,8,0:0:0:0:
180,160,1565,5,2,0:0:0:0:
268,176,1750,1,0,0:0:0:0:
352,140,1936,1,8,0:0:0:0:
436,104,2121,2,0,B|464:164|468:220|436:280,1,180,2|0,0:0|0:0,0:0:0:0:
300,316,2676,1,8,0:0:0:0:
116,64,3047,1,2,0:0:0:0:
116,268,3417,2,0,L|116:179,1,90,8|0,0:0|0:0,0:0:0:0:
392,204,3787,5,2,0:0:0:0:
116,179,4158,1,8,0:0:0:0:
392,204,4528,1,2,0:0:0:0:
264,228,4713,1,0,0:0:0:0:
156,304,4899,1,8,0:0:0:0:
116,180,5084,1,2,0:0:0:0:
116,180,5454,5,0,0:0:0:0:
204,88,5639,1,8,0:0:0:0:
328,120,5824,1,0,0:0:0:0:
204,88,6010,2,0,P|200:132|212:180,1,90,2|0,0:0|0:0,0:0:0:0:
236,284,6380,1,8,0:0:0:0:
392,324,6750,6,0,L|457:262,1,90,2|0,0:0|0:0,0:0:0:0:
328,120,7121,2,0,L|260:184,1,90,8|0,0:0|0:0,0:0:0:0:
458,262,7491,5,10,0:0:0:0:
476,120,7676,1,0,0:0:0:0:
328,120,7862,1,8,0:0:0:0:
204,156,8047,2,0,P|208:112|204:64,1,90,10|0,0:0|0:0,0:0:0:0:
204,66,8602,1,8,0:0:0:0:
88,92,8787,5,2,0:0:0:0:
44,200,8973,2,0,P|36:248|40:290,1,90,8|0,0:0|0:0,0:0:0:0:
152,264,9343,2,0,P|200:272|242:268,1,90,8|0,0:0|0:0,0:0:0:0:
352,248,9713,5,10,0:0:0:0:
448,152,9899,1,0,0:0:0:0:
352,56,10084,1,8,0:0:0:0:
256,152,10269,1,0,0:0:0:0:
160,56,10454,5,10,0:0:0:0:
64,152,10639,1,0,0:0:0:0:
160,248,10824,1,8,0:0:0:0:
256,152,11010,1,0,0:0:0:0:
352,56,11195,5,2,0:0:0:0:
352,56,11287,1,0,0:0:0:0:
352,56,11380,2,0,L|386:86,1,45,0|0,0:0|0:0,0:0:0:0:
476,136,11565,2,0,L|442:166,1,45,2|0,0:0|0:0,0:0:0:0:
352,208,11750,2,0,L|386:238,1,45,0|0,0:0|0:0,0:0:0:0:
344,320,11936,5,2,0:0:0:0:
320,320,12028,1,0,0:0:0:0:
296,320,12121,1,0,0:0:0:0:
272,320,12213,1,0,0:0:0:0:
248,320,12306,1,2,0:0:0:0:
224,320,12399,1,0,0:0:0:0:
200,320,12491,1,2,0:0:0:0:
96,248,12676,1,4,0:0:0:0:
96,248,13047,6,0,L|96:152,1,90,8|0,0:0|0:0,0:0:0:0:
176,84,13417,1,0,0:0:0:0:
284,92,13602,1,0,0:0:0:0:
312,104,13695,1,0,0:0:0:0:
340,120,13787,2,0,L|424:168,1,90,8|0,0:0|0:0,0:0:0:0:
376,268,14158,2,0,L|292:220,1,90,0|0,0:0|0:0,0:0:0:0:
160,144,14528,5,8,0:0:0:0:
204,252,14713,1,0,0:0:0:0:
88,236,14899,1,0,0:0:0:0:
240,176,15084,2,0,P|247:135|240:88,2,90,8|8|2,0:0|0:0|0:0,0:0:0:0:
136,308,15639,1,0,0:0:0:0:
136,308,16010,5,8,0:0:0:0:
272,360,16195,2,0,P|316:356|353:330,1,90,0|0,0:0|0:0,0:0:0:0:
456,260,16565,1,0,0:0:0:0:
336,220,16750,1,8,0:0:0:0:
432,136,16936,2,0,B|398:33|293:56,1,180
112,96,17491,5,8,0:0:0:0:
40,188,17676,1,0,0:0:0:0:
156,204,17862,1,0,0:0:0:0:
28,108,18047,2,0,P|21:67|28:16,2,90,8|8|0,0:0|0:0|0:0,0:0:0:0:
88,264,18602,1,4,0:0:0:0:
88,264,18973,6,0,P|131:271|176:264,1,90,8|0,0:0|0:0,0:0:0:0:
256,312,19343,1,0,0:0:0:0:
429,271,19528,2,0,P|386:264|341:271,1,90,0|8,0:0|0:0,0:0:0:0:
256,312,19899,2,0,L|256:216,2,90,0|0|0,0:0|0:0|0:0,0:0:0:0:
429,272,20454,6,0,P|436:229|424:185,1,90,8|0,0:0|0:0,0:0:0:0:
364,108,20824,1,0,0:0:0:0:
199,182,21010,2,0,P|242:189|286:177,1,90,0|8,0:0|0:0,0:0:0:0:
364,108,21380,1,0,0:0:0:0:
188,20,21565,6,0,B|157:51|147:99|165:152|199:182,1,180,2|8,0:0|0:0,0:0:0:0:
199,182,22121,1,0,0:0:0:0:
163,310,22306,1,2,0:0:0:0:
255,258,22491,1,0,0:0:0:0:
107,234,22676,1,8,0:0:0:0:
251,350,22862,2,0,B|311:374|387:350|404:296,1,180,0|2,0:0|0:0,0:0:0:0:
303,166,23417,1,8,0:0:0:0:
467,118,23602,1,0,0:0:0:0:
404,296,23787,5,2,0:0:0:0:
384,320,23880,1,0,0:0:0:0:
360,340,23973,1,8,0:0:0:0:
332,356,24065,1,0,0:0:0:0:
304,368,24158,6,0,L|244:392,1,45,10|0,0:0|0:0,0:0:0:0:
136,360,24343,2,0,L|196:340,1,45,0|0,0:0|0:0,0:0:0:0:
256,296,24528,1,4,0:0:0:0:
256,296,24899,5,8,0:0:0:0:
256,296,25084,2,0,L|256:206,1,90,0|0,0:0|0:0,0:0:0:0:
302,86,25454,1,0,0:0:0:0:
328,96,25547,1,0,0:0:0:0:
350,105,25639,2,0,P|388:131|409:170,1,90,8|0,0:0|0:0,0:0:0:0:
432,284,26010,1,0,0:0:0:0:
336,352,26195,1,0,0:0:0:0:
240,280,26380,5,8,0:0:0:0:
353,195,26565,2,0,P|357:148|350:105,1,90,0|0,0:0|0:0,0:0:0:0:
240,148,26936,1,8,0:0:0:0:
124,64,27121,2,0,P|120:111|127:154,1,90,8|2,0:0|0:0,0:0:0:0:
188,312,27491,1,0,0:0:0:0:
240,148,27862,6,0,P|216:188|180:220,1,90,8|0,0:0|0:0,0:0:0:0:
344,120,28232,1,0,0:0:0:0:
344,120,28417,2,0,P|368:80|404:48,1,90,0|8,0:0|0:0,0:0:0:0:
408,204,28787,2,0,P|384:244|348:276,1,90,0|0,0:0|0:0,0:0:0:0:
252,320,29158,1,8,0:0:0:0:
124,192,29343,5,8,0:0:0:0:
136,68,29528,1,0,0:0:0:0:
28,132,29713,1,0,0:0:0:0:
196,140,29899,2,0,P|204:184|196:232,1,90,8|8,0:0|0:0,0:0:0:0:
104,344,30269,1,0,0:0:0:0:
252,320,30454,1,4,0:0:0:0:
324,156,30824,5,8,0:0:0:0:
424,216,31010,1,0,0:0:0:0:
408,100,31195,2,0,P|408:56|428:16,2,90,0|0|8,0:0|0:0|0:0,0:0:0:0:
488,304,31750,1,0,0:0:0:0:
376,340,31936,2,0,P|332:352|288:352,1,90
176,284,32306,5,8,0:0:0:0:
56,244,32491,1,0,0:0:0:0:
84,368,32676,1,0,0:0:0:0:
132,208,32862,1,0,0:0:0:0:
12,172,33047,1,8,0:0:0:0:
40,48,33232,1,0,0:0:0:0:
40,48,33324,1,0,0:0:0:0:
40,48,33417,6,0,L|152:48,1,90,4|0,0:0|0:0,0:0:0:0:
312,128,33787,1,8,0:0:0:0:
312,128,33973,2,0,L|212:128,1,90,0|0,0:0|0:0,0:0:0:0:
42,208,34343,2,0,L|134:208,1,90,0|8,0:0|0:0,0:0:0:0:
180,308,34713,2,0,B|272:324|360:308,1,180,0|8,0:0|0:0,0:0:0:0:
312,128,35269,1,8,0:0:0:0:
359,308,35454,1,0,0:0:0:0:
494,158,35639,5,2,0:0:0:0:
424,160,36010,5,12,0:0:0:0:
356,160,36380,6,0,B|360:108|319:58|262:46|211:74,1,202.500007724762,4|0,0:0|0:0,0:0:0:0:
24,76,37121,2,0,B|19:127|60:177|117:189|168:161,1,202.500007724762,2|0,0:0|0:0,0:0:0:0:
284,160,37862,5,2,0:0:0:0:
199,336,38232,1,0,0:0:0:0:
372,244,38602,1,2,0:0:0:0:
178,216,38973,1,0,0:0:0:0:
319,353,39343,1,2,0:0:0:0:
176,216,39713,5,0,0:0:0:0:
176,216,39899,2,0,L|116:264,1,67.5000025749208,0|8,0:0|0:0,0:0:0:0:
44,304,40269,2,0,P|32:232|48:168,1,135.000005149842,0|0,0:0|0:0,0:0:0:0:
80,84,40824,1,8,0:0:0:0:
192,176,41010,1,0,0:0:0:0:
192,176,41102,1,0,0:0:0:0:
192,176,41195,1,0,0:0:0:0:
312,72,41380,1,0,0:0:0:0:
312,72,41565,2,0,L|312:168,1,67.5000025749208,8|0,0:0|0:0,0:0:0:0:
456,164,41936,2,0,L|456:72,1,67.5000025749208,0|0,0:0|0:0,0:0:0:0:
488,256,42306,5,4,0:0:0:0:
376,336,42491,1,0,0:0:0:0:
332,336,42584,1,0,0:0:0:0:
288,336,42676,1,2,0:0:0:0:
140,260,42862,6,0,P|132:219|136:171,1,90
224,224,43232,1,0,0:0:0:0:
308,172,43417,2,0,P|312:220|304:264,1,90,2|0,0:0|0:0,0:0:0:0:
140,260,43787,2,0,P|96:256|48:260,1,90,8|0,0:0|0:0,0:0:0:0:
88,96,44158,2,0,P|132:100|180:96,1,90,2|0,0:0|0:0,0:0:0:0:
304,40,44528,5,8,0:0:0:0:
428,104,44713,1,0,0:0:0:0:
308,172,44899,1,2,0:0:0:0:
388,32,45084,1,0,0:0:0:0:
300,184,45269,6,0,P|336:208|380:220,2,90,8|0|10,0:0|0:0|0:0,0:0:0:0:
120,40,45824,2,0,L|108:129,1,90,0|8,0:0|0:0,0:0:0:0:
164,316,46195,2,0,L|176:220,1,90,0|10,0:0|0:0,0:0:0:0:
228,80,46565,6,0,P|268:106|300:136,1,90,0|8,0:0|0:0,0:0:0:0:
396,296,47028,1,8,0:0:0:0:
396,296,47121,1,0,0:0:0:0:
136,280,47306,2,0,P|177:285|225:282,1,90,0|8,0:0|0:0,0:0:0:0:
384,180,47769,1,8,0:0:0:0:
384,180,47862,1,0,0:0:0:0:
164,88,48047,1,0,0:0:0:0:
192,192,48232,6,0,L|304:192,2,101.250003862381,2|2|2,0:0|0:0|0:0,0:0:0:0:
164,88,48973,5,8,0:0:0:0:
192,192,49158,1,0,0:0:0:0:
88,168,49343,1,2,0:0:0:0:
120,272,49528,1,0,0:0:0:0:
196,348,49713,6,0,B|256:328|304:284|324:228,1,180,4|8,0:0|0:0,0:0:0:0:
448,164,50269,1,0,0:0:0:0:
352,60,50454,2,0,B|327:17|268:12|217:38|215:87,1,180,2|8,0:0|0:0,0:0:0:0:
260,252,51010,1,0,0:0:0:0:
128,360,51195,2,0,B|79:354|53:301|58:244|103:223,1,180,2|8,0:0|0:0,0:0:0:0:
280,172,51750,1,0,0:0:0:0:
176,256,51936,2,0,P|200:336|288:360,1,180,2|8,0:0|0:0,0:0:0:0:
404,352,52491,1,0,0:0:0:0:
452,252,52676,6,0,P|428:172|344:132,1,180,2|8,0:0|0:0,0:0:0:0:
212,200,53232,2,0,L|124:240,1,90,0|2,0:0|0:0,0:0:0:0:
24,144,53602,2,0,L|112:104,1,90,0|8,0:0|0:0,0:0:0:0:
232,72,53973,1,0,0:0:0:0:
333,153,54158,5,10,0:0:0:0:
211,200,54343,1,0,0:0:0:0:
232,72,54528,1,8,0:0:0:0:
284,208,54713,1,0,0:0:0:0:
164,256,54899,1,10,0:0:0:0:
176,128,55084,1,0,0:0:0:0:
248,288,55269,1,2,0:0:0:0:
248,288,55454,1,0,0:0:0:0:
248,288,55639,6,0,P|272:252|284:204,1,90,4|0,0:0|0:0,0:0:0:0:
400,40,56010,2,0,P|376:76|364:124,1,90,8|0,0:0|0:0,0:0:0:0:
384,208,56380,1,2,0:0:0:0:
480,288,56565,5,0,0:0:0:0:
360,328,56750,1,8,0:0:0:0:
236,308,56936,1,0,0:0:0:0:
292,196,57121,2,0,P|304:160|304:108,2,90,2|0|8,0:0|0:0|0:0,0:0:0:0:
112,328,57676,1,0,0:0:0:0:
140,188,57862,1,2,0:0:0:0:
152,156,57954,1,0,0:0:0:0:
172,125,58047,1,0,0:0:0:0:
304,20,58232,2,0,P|300:65|304:109,1,90,8|0,0:0|0:0,0:0:0:0:
408,172,58602,5,4,0:0:0:0:
408,172,58973,1,8,0:0:0:0:
408,172,59158,2,0,P|448:152|480:120,1,90,0|2,0:0|0:0,0:0:0:0:
404,292,59528,2,0,P|448:304|484:328,1,90,0|8,0:0|0:0,0:0:0:0:
340,352,59899,2,0,P|296:340|260:316,1,90,0|2,0:0|0:0,0:0:0:0:
172,232,60269,2,0,L|172:128,2,90,8|8|0,0:0|0:0|0:0,0:0:0:0:
60,304,60824,2,0,L|60:212,1,90,2|0,0:0|0:0,0:0:0:0:
60,124,61195,1,8,0:0:0:0:
60,124,61380,5,0,0:0:0:0:
60,124,61473,1,0,0:0:0:0:
60,124,61565,2,0,B|104:164|164:180|228:172,1,180,4|8,0:0|0:0,0:0:0:0:
316,68,62121,1,0,0:0:0:0:
440,124,62306,2,0,B|478:150|476:212|442:258|395:261,1,180,2|8,0:0|0:0,0:0:0:0:
224,320,62862,1,0,0:0:0:0:
244,140,63047,2,0,B|241:94|195:60|133:58|107:96,1,180,2|8,0:0|0:0,0:0:0:0:
104,240,63602,1,0,0:0:0:0:
224,320,63787,2,0,B|281:358|341:358|392:320,1,180,2|8,0:0|0:0,0:0:0:0:
304,220,64343,1,0,0:0:0:0:
396,128,64528,6,0,B|338:89|278:89|228:128,1,180,2|8,0:0|0:0,0:0:0:0:
81,137,65084,2,0,P|76:180|84:228,1,90,0|2,0:0|0:0,0:0:0:0:
228,128,65454,2,0,P|233:85|225:37,1,90,0|8,0:0|0:0,0:0:0:0:
184,224,65824,1,0,0:0:0:0:
332,144,66010,5,10,0:0:0:0:
376,252,66195,1,0,0:0:0:0:
436,152,66380,1,8,0:0:0:0:
316,212,66565,1,0,0:0:0:0:
368,316,66750,1,10,0:0:0:0:
436,220,66936,1,0,0:0:0:0:
304,284,67121,1,2,0:0:0:0:
304,284,67306,1,0,0:0:0:0:
304,284,67491,6,0,P|264:308|220:320,1,90,4|0,0:0|0:0,0:0:0:0:
80,284,67862,2,0,P|77:237|87:192,1,90,8|0,0:0|0:0,0:0:0:0:
172,116,68232,1,2,0:0:0:0:
264,44,68417,1,0,0:0:0:0:
172,116,68602,1,8,0:0:0:0:
188,232,68787,1,0,0:0:0:0:
320,212,68973,6,0,L|320:120,1,90,6|0,0:0|0:0,0:0:0:0:
376,44,69343,1,8,0:0:0:0:
468,116,69528,1,0,0:0:0:0:
424,224,69713,1,2,0:0:0:0:
400,252,69806,1,0,0:0:0:0:
376,280,69899,1,0,0:0:0:0:
256,256,70084,1,8,0:0:0:0:
136,308,70269,2,0,L|96:228,1,90,0|4,0:0|0:0,0:0:0:0:
372,200,70824,5,10,0:0:0:0:
256,256,71010,1,0,0:0:0:0:
416,320,71195,1,4,0:0:0:0:
380,188,71380,1,0,0:0:0:0:
312,332,71565,1,10,0:0:0:0:
160,248,71750,1,0,0:0:0:0:
120,76,71936,6,0,P|152:40|192:28,1,90,4|0,0:0|0:0,0:0:0:0:
432,36,72306,2,0,P|400:72|360:84,1,90,8|0,0:0|0:0,0:0:0:0:
256,144,72676,6,0,P|248:188|256:234,1,90,2|0,0:0|0:0,0:0:0:0:
372,336,73047,1,8,0:0:0:0:
140,336,73232,1,0,0:0:0:0:
256,192,73417,12,4,74899,0:0:0:0:
148,212,75176,5,2,0:0:0:0:
288,324,75454,2,0,L|328:292,1,45,8|0,0:0|0:0,0:0:0:0:
328,192,75639,2,0,L|368:224,1,45,2|0,0:0|0:0,0:0:0:0:
408,328,75824,2,0,L|448:296,1,45,8|0,0:0|0:0,0:0:0:0:
460,196,76010,6,0,L|388:136,1,90,8|0,0:0|0:0,0:0:0:0:
260,56,76380,1,4,0:0:0:0:
288,324,76750,6,0,P|244:312|204:288,1,90,8|0,0:0|0:0,0:0:0:0:
40,172,77121,1,2,0:0:0:0:
160,124,77306,1,0,0:0:0:0:
60,48,77491,1,8,0:0:0:0:
128,220,77676,2,0,P|173:219|217:211,1,90,0|2,0:0|0:0,0:0:0:0:
344,140,78047,1,0,0:0:0:0:
452,208,78232,5,8,0:0:0:0:
300,244,78417,1,0,0:0:0:0:
424,320,78602,1,2,0:0:0:0:
300,244,78787,1,0,0:0:0:0:
156,272,78973,2,0,B|164:212|212:160|268:144,1,180,8|2,0:0|0:0,0:0:0:0:
424,56,79713,5,8,0:0:0:0:
156,272,80084,1,2,0:0:0:0:
508,248,80454,2,0,L|428:204,1,90,8|8,0:0|0:0,0:0:0:0:
348,120,80824,2,0,L|300:204,1,90,2|0,0:0|0:0,0:0:0:0:
292,316,81195,2,0,L|212:272,1,90,8|8,0:0|0:0,0:0:0:0:
92,124,81565,5,2,0:0:0:0:
348,120,81750,1,8,0:0:0:0:
220,56,81936,1,8,0:0:0:0:
208,212,82121,1,0,0:0:0:0:
464,224,82306,6,0,P|432:280|368:304,1,135.000005149842,4|0,0:0|0:0,0:0:0:0:
208,212,82862,2,0,L|200:280,1,67.5000025749208,12|0,3:0|0:0,0:0:0:0:
276,340,83232,2,0,L|284:272,1,67.5000025749208,4|0,3:0|0:0,0:0:0:0:
308,104,83602,1,4,3:0:0:0:
232,204,83787,1,0,0:0:0:0:
356,228,83973,1,12,3:0:0:0:
224,121,84158,5,0,0:0:0:0:
116,41,84343,1,8,0:0:0:0:
32,145,84528,1,2,0:0:0:0:
44,180,84621,1,0,0:0:0:0:
60,212,84713,1,0,0:0:0:0:
76,244,84806,1,0,0:0:0:0:
92,276,84899,2,0,L|136:292,3,45,2|0|2|0,0:0|0:0|0:0|0:0,0:0:0:0:
224,305,85269,5,4,0:0:0:0:
32,145,85824,1,4,0:0:0:0:
336,29,86380,1,12,0:0:0:0:
