osu file format v12

[General]
AudioFilename: DCIII OP.mp3
AudioLeadIn: 1500
PreviewTime: 48865
Countdown: 0
SampleSet: Soft
StackLeniency: 0.7
Mode: 0
LetterboxInBreaks: 0

[Editor]
DistanceSpacing: 1
BeatDivisor: 1
GridSize: 4

[Metadata]
Title:Sakura Happy Innovation (TV Size)
TitleUnicode:サクラハッピーイノベーション (TV Size)
Artist:Kazami Gakuen Shinbunbu
ArtistUnicode:風見学園新聞部
Creator:Licca
Version:Easy
Source:D.C.III ~Da Capo III~
Tags:Nitta Emi Miyazaki Ui Sasaki Mikoi Ousaki Chiyo Kaiho Erika circus opening alacat
BeatmapID:224231
BeatmapSetID:80620

[Difficulty]
HPDrainRate:2
CircleSize:3
OverallDifficulty:2
ApproachRate:3
SliderMultiplier:0.9
SliderTickRate:1

[Events]
//Background and Video events
Video,0,"OP.avi"
0,0,"BG.jpg",0,0
//Break Periods
//Storyboard Layer 0 (Background)
//Storyboard Layer 1 (Fail)
//Storyboard Layer 2 (Pass)
//Storyboard Layer 3 (Foreground)
//Storyboard Sound Samples
//Background Colour Transformations
3,100,163,162,255

[TimingPoints]
825,370.37037037037,4,2,1,60,1,0
11195,-100,4,2,1,65,0,0
48973,-100,4,2,1,80,0,0
49713,-100,4,2,1,80,0,1
74528,-100,4,2,1,70,0,1
76380,-100,4,2,1,60,0,0
85269,-100,4,2,1,80,0,0
85824,-100,4,2,1,70,0,0
86380,-100,4,2,1,80,0,0

[Colours]
Combo1 : 246,250,189
Combo2 : 255,255,0
Combo3 : 128,128,192
Combo4 : 255,128,64
Combo5 : 181,106,106

[HitObjects]
416,240,825,1,2,0:0:0:0:
376,160,1195,2,0,P|324:100|232:112,1,180,8|8,0:0|0:0,0:0:0:0:
96,232,2676,2,0,P|148:292|240:280,1,180,8|8,0:0|0:0,0:0:0:0:
304,212,3787,5,2,0:0:0:0:
376,160,4158,2,0,P|404:248|376:328,2,180,8|8|8,0:0|0:0|0:0,0:0:0:0:
212,80,6380,1,8,0:0:0:0:
124,80,6750,6,0,L|20:80,2,90,8|8|8,0:0|0:0|0:0,0:0:0:0:
164,160,7862,1,8,0:0:0:0:
224,228,8232,2,0,L|224:332,2,90,8|8|8,0:0|0:0|0:0,0:0:0:0:
280,156,9343,1,8,0:0:0:0:
256,192,9713,12,4,11195,0:0:0:0:
448,328,12676,5,4,0:0:0:0:
392,256,13047,6,0,B|336:212|336:212|368:160|340:104,1,180,8|8,0:0|0:0,0:0:0:0:
256,140,14158,1,0,0:0:0:0:
169,108,14528,2,0,B|144:160|176:212|176:212|120:256,1,180,8|8,0:0|0:0,0:0:0:0:
168,332,15639,1,0,0:0:0:0:
256,316,16010,6,0,B|292:356|364:372|424:344,2,180,8|8|8,0:0|0:0|0:0,0:0:0:0:
192,252,17862,1,0,0:0:0:0:
248,180,18232,1,8,0:0:0:0:
392,72,18973,6,0,B|308:28|220:72,1,180,8|8,0:0|0:0,0:0:0:0:
144,120,20084,1,0,0:0:0:0:
120,208,20454,2,0,B|204:252|292:208,1,180,8|8,0:0|0:0,0:0:0:0:
384,200,21565,1,0,0:0:0:0:
468,232,21936,6,0,P|492:144|460:60,2,180,8|8|8,0:0|0:0|0:0,0:0:0:0:
416,308,23787,2,0,L|324:308,1,90,2|8,0:0|0:0,0:0:0:0:
236,304,24528,1,4,0:0:0:0:
148,300,24899,6,0,B|80:292|80:292|48:248|60:184,1,180,8|8,0:0|0:0,0:0:0:0:
96,104,26010,1,0,0:0:0:0:
180,72,26380,2,0,P|259:42|345:73,1,180,8|8,0:0|0:0,0:0:0:0:
400,144,27491,1,0,0:0:0:0:
460,212,27862,6,0,B|468:280|420:328|344:312,2,180,8|8|8,0:0|0:0|0:0,0:0:0:0:
400,144,29713,1,2,0:0:0:0:
312,124,30084,1,8,0:0:0:0:
132,120,30824,6,0,P|120:164|120:209,1,90,8|0,0:0|0:0,0:0:0:0:
200,248,31565,1,8,0:0:0:0:
380,248,32306,2,0,P|380:203|368:159,2,90,8|0|8,0:0|0:0|0:0,0:0:0:0:
376,340,33417,6,0,B|328:356|260:328|196:340,1,180,4|0,0:0|0:0,0:0:0:0:
116,300,34528,1,8,0:0:0:0:
88,212,34899,2,0,B|136:196|204:224|268:212,1,180,2|2,0:0|0:0,0:0:0:0:
344,164,36010,1,8,0:0:0:0:
384,84,36380,6,0,P|296:68|208:84,1,180,4|2,0:0|0:0,0:0:0:0:
68,204,37862,2,0,B|37:246|42:328|84:373,2,180,0|2|0,0:0|0:0|0:0,0:0:0:0:
152,44,40084,6,0,B|211:45|272:100|281:152,1,180,0|0,0:0|0:0,0:0:0:0:
312,328,41565,2,0,P|352:338|399:333,2,90,0|8|4,0:0|0:0|0:0,0:0:0:0:
148,252,43047,6,0,P|102:254|63:276,2,90,0|8|0,0:0|0:0|0:0,0:0:0:0:
160,72,44528,2,0,P|164:120|180:160,1,90,0|8,0:0|0:0,0:0:0:0:
240,228,45269,6,0,B|232:272|240:320,2,90,8|0|8,0:0|0:0|0:0,0:0:0:0:
300,160,46380,1,2,0:0:0:0:
344,84,46750,2,0,P|300:76|256:84,1,90,8|2,0:0|0:0,0:0:0:0:
180,132,47491,2,0,P|135:137|91:129,1,90,8|2,0:0|0:0,0:0:0:0:
268,332,48973,6,0,L|372:332,2,90,8|0|4,1:0|1:0|1:0,0:0:0:0:
88,320,50454,2,0,B|50:267|64:192|117:162,1,180,2|0,0:0|0:0,0:0:0:0:
256,280,51936,1,0,0:0:0:0:
432,320,52676,6,0,B|470:267|456:192|403:162,2,180,2|0|0,0:0|0:0|0:0,0:0:0:0:
344,300,54528,1,2,0:0:0:0:
296,224,54899,1,8,0:0:0:0:
416,80,55639,5,4,0:0:0:0:
240,108,56380,1,8,0:0:0:0:
68,156,57121,2,0,B|44:220|44:272|68:332,1,180,2|8,0:0|0:0,0:0:0:0:
248,356,58602,6,0,B|272:296|272:244|248:180,1,180,2|8,0:0|0:0,0:0:0:0:
160,156,59713,1,0,0:0:0:0:
224,92,60084,2,0,P|316:96|389:141,1,180,2|8,0:0|0:0,0:0:0:0:
464,304,61565,5,4,0:0:0:0:
284,328,62306,2,0,P|192:336|120:288,1,180,2|0,0:0|0:0,0:0:0:0:
164,116,63787,1,0,0:0:0:0:
312,216,64528,6,0,P|328:124|312:40,2,180,2|0|0,0:0|0:0|0:0,0:0:0:0:
272,296,66380,1,2,0:0:0:0:
192,336,66750,1,8,0:0:0:0:
68,208,67491,6,0,B|96:168|88:120|88:120|128:112|176:132,1,180,6|8,0:0|0:0,0:0:0:0:
232,200,68602,1,2,0:0:0:0:
300,260,68973,2,0,B|340:232|388:240|388:240|396:200|376:152,1,180,2|8,0:0|0:0,0:0:0:0:
236,40,70454,5,2,0:0:0:0:
96,156,71195,2,0,P|156:192|264:204,1,180,6|2,0:0|0:0,0:0:0:0:
440,160,72676,1,0,0:0:0:0:
256,192,73417,12,2,74899,0:0:0:0:
256,224,75639,6,0,L|256:314,2,90,2|8|4,0:0|0:0|0:0,0:0:0:0:
328,172,76750,5,8,0:0:0:0:
396,112,77121,1,2,0:0:0:0:
328,56,77491,1,8,0:0:0:0:
148,56,78232,5,8,0:0:0:0:
80,116,78603,1,2,0:0:0:0:
148,172,78973,1,8,0:0:0:0:
220,116,79343,6,0,B|268:100|336:128|400:116,1,180,2|2,0:0|0:0,0:0:0:0:
479,159,80454,1,8,0:0:0:0:
512,244,80824,2,0,B|464:260|396:232|332:244,1,180,2|2,0:0|0:0,0:0:0:0:
259,298,81936,1,8,0:0:0:0:
168,284,82306,5,4,0:0:0:0:
92,332,82676,2,0,B|60:288|52:232|64:160,1,180,2|8,0:0|0:0,0:0:0:0:
128,96,83787,1,0,0:0:0:0:
200,44,84158,2,0,B|232:88|240:144|228:216,1,180,2|8,0:0|0:0,0:0:0:0:
160,280,85269,6,0,P|200:324|272:324,1,135,4|4,0:0|0:0,0:0:0:0:
388,256,86380,1,12,0:0:0:0:
