osu file format v7

[General]
AudioFilename: Track 01.mp3
AudioLeadIn: 0
PreviewTime: -1
Countdown: 1
SampleSet: Soft
StackLeniency: 0.7
Mode: 0
LetterboxInBreaks: 1

[Editor]
DistanceSpacing: 1
BeatDivisor: 2
GridSize: 32

[Metadata]
Title:Sajin no Kanata he
Artist:Kazaha
Creator:sandy1bd
Version:Hard
Source:Ragnarok Battle Offline
Tags:Ragnarok Battle Offline RBO Sajin no Kanata he Lisa

[Difficulty]
HPDrainRate:6
CircleSize:4
OverallDifficulty:7
SliderMultiplier:1.5
SliderTickRate:1

[Events]
//Background and Video events
0,0,"RBO.jpg"
Video,0,"rbo.wmv"
//Break Periods
2,28953,32762
2,56954,57490
2,70227,77491
2,87500,92400
2,103500,104037
2,150047,150583
2,163320,170584
//Storyboard Layer 0 (Background)
//Storyboard Layer 1 (Fail)
//Storyboard Layer 2 (Pass)
//Storyboard Layer 3 (Foreground)
//Storyboard Sound Samples
//Background Colour Transformations
3,100,163,162,255

[TimingPoints]
11844,363.64578313253,4,2,0,100,1,0
87200,-100,4,2,0,0,0,0
87400,-100,4,2,0,100,0,0
179757,-100,4,2,0,0,0,0
179957,-100,4,2,0,100,0,0

[HitObjects]
64,224,11844,1,8
128,96,12207,1,0
128,96,12389,1,0
128,96,12571,2,0,B|224:256,1,150,8|0
205,224,13116,5,0
205,224,13298,2,0,B|288:64,1,150,8|0
273,91,13844,1,0
273,91,14025,2,0,B|352:224,1,150,8|0
349,220,14571,5,0
349,220,14753,2,0,B|416:320,6,75,8|0|0|0|8|0|0
349,220,16025,1,0
349,220,16207,2,0,B|192:320|192:320|32:192,1,375,8|8
32,128,17298,5,8
32,128,17480,1,0
32,128,17662,1,0
224,32,18207,5,0
224,160,18389,1,8
224,352,18935,5,0
224,224,19116,1,8
352,32,19662,5,0
352,160,19844,1,8
352,352,20389,5,0
352,224,20571,1,8
480,192,21116,5,0
416,192,21298,2,0,B|96:192,1,300,8|0
160,64,22571,5,0
224,64,22753,1,0
288,96,22935,1,0
288,96,23026,1,0
288,96,23117,1,0
384,192,23480,5,8
384,192,23662,1,0
384,192,23844,1,0
384,192,24026,1,0
352,256,24207,1,8
352,256,24389,1,0
352,256,24571,1,0
352,256,24753,1,0
288,288,24935,5,8
288,288,25117,1,0
288,288,25298,1,0
288,288,25480,1,0
288,288,25662,2,0,B|224:224,1,75,8|0
234,234,26026,1,0
234,234,26208,1,0
234,234,26389,2,0,B|160:160,1,75,8|0
128,224,26753,5,0
96,160,26935,1,0
96,128,27026,1,0
128,96,27117,1,8
192,64,27298,1,0
256,64,27480,1,0
320,96,27662,1,0
320,96,27844,2,8,B|320:256,1,150,4|0
320,321,28389,5,8
320,321,28480,1,8
320,321,28571,1,8
320,321,28753,5,4
256,192,33662,5,4
256,192,33935,1,4
256,192,34208,1,4
256,192,34390,1,4
128,224,34753,5,0
64,192,34935,1,0
32,128,35117,2,0,B|192:64,1,150
288,64,35844,1,8
288,64,36026,1,8
288,64,36208,1,8
352,128,36390,5,8
416,128,36571,1,8
384,256,36844,1,8
224,288,37117,1,8
160,288,37299,1,8
192,160,37571,1,8
64,64,37844,5,0
64,64,38026,2,0,B|352:64,1,225
352,64,38753,1,8
288,128,38935,1,0
352,192,39117,1,0
288,128,39299,1,0
224,192,39481,5,8
288,128,39662,1,0
224,64,39844,1,0
288,128,40026,1,0
352,64,40208,5,8
288,128,40390,1,0
352,192,40572,1,0
288,128,40753,1,0
288,128,40935,6,0,B|288:320|32:320,1,300,8|0
32,192,42026,1,0
128,64,42390,1,0
192,192,42753,1,0
256,320,43117,1,0
352,192,43481,1,0
416,64,43844,5,4
64,64,44572,5,4
256,320,45117,6,4,B|256:224,1,75
256,245,45481,5,8
256,245,45663,1,8
128,288,46026,5,0
64,224,46208,1,0
128,160,46390,1,0
64,96,46572,1,8
128,32,46753,2,0,B|256:128|416:32,1,300,8|8
448,96,47663,5,8
384,160,47844,1,0
448,224,48026,1,0
384,288,48208,2,0,B|256:288,1,112.5
271,288,48754,1,8
271,288,48935,2,0,B|128:288,1,112.5,8|0
158,288,49481,1,8
158,288,49663,1,8
160,128,50026,5,0
160,128,50208,1,0
160,128,50390,1,8
320,128,50754,5,0
320,128,50935,1,0
320,128,51117,1,8
256,256,51481,5,0
256,256,51663,1,0
256,256,51845,1,8
256,160,52208,5,0
256,192,52572,12,4,56754
64,192,58390,5,8
160,320,58754,1,0
224,256,58936,1,0
288,320,59117,1,8
384,224,59481,1,0
448,160,59663,1,0
384,96,59845,1,8
256,160,60208,5,0
192,96,60390,1,0
128,160,60572,1,8
256,256,60936,2,0,C|352:256,2,75,0|0|8
407,192,62027,6,0,C|247:192,1,150,8|0
257,42,62754,2,0,C|257:202,1,150,8|0
107,192,63481,2,0,C|267:192,1,150,8|0
64,320,64208,2,0,C|64:160,1,150,8|0
416,32,64936,6,0,C|416:192,1,150,8|0
64,32,65663,2,0,C|64:192,1,150,8|0
416,320,66390,2,0,C|416:160,1,150,8|0
175,276,67118,2,0,B|143:212|175:148|239:116|303:148|335:212|303:276|239:308|175:244|207:180|239:148|271:212,1,375
256,192,68390,5,8
256,192,68572,5,8
128,96,68936,5,0
64,224,69300,1,0
384,128,69663,1,4
128,128,70027,1,4
96,96,78391,5,4
384,96,78754,5,4
96,160,79118,5,4
384,160,79482,5,4
96,224,79845,5,4
384,224,80209,5,4
96,288,80573,5,4
384,288,80936,5,4
256,192,81300,5,0
256,192,81663,12,0,87300
32,128,93300,5,0
32,256,93664,1,0
128,288,94027,1,8
192,288,94209,1,8
256,288,94391,1,8
384,288,94755,5,0
384,160,95118,1,0
256,160,95482,1,8
192,160,95664,1,8
128,160,95846,1,8
64,288,96209,5,0
224,320,96573,1,0
384,288,96937,1,8
416,224,97118,1,8
384,160,97300,1,8
288,64,97664,5,0
192,192,98028,1,0
256,320,98391,1,8
320,256,98573,1,8
384,320,98755,1,8
448,256,98937,1,0
448,256,99118,6,0,C|448:96,1,150
320,64,99846,1,0
192,160,100209,1,8
128,96,100391,1,8
64,160,100573,1,8
128,288,100937,1,0
256,320,101300,1,0
384,224,101664,1,0
256,192,102028,12,4,103300
64,128,104937,5,0
256,32,105482,1,0
256,96,105664,1,0
256,160,105846,2,8,C|352:160,1,75
256,224,106210,5,0
256,288,106391,1,0
256,352,106573,2,8,C|160:352,1,75
128,288,106937,6,0,C|128:192,1,75
128,160,107301,2,8,C|128:64,1,75
192,64,107664,6,0,C|288:64,1,75
320,64,108028,2,8,C|416:64,1,75
480,64,108391,1,0
512,96,108482,1,0
480,128,108573,1,0
416,192,108755,1,8
384,256,108937,1,8
352,320,109119,5,0
288,320,109301,1,0
224,320,109482,2,8,C|160:256,1,75
96,256,109846,1,0
64,224,109937,1,0
96,192,110028,1,0
160,160,110210,1,8
224,160,110392,1,8
384,64,110755,6,8,C|448:128,1,75
448,192,111119,1,0
416,256,111301,1,0
352,320,111482,2,8,C|256:320,1,75
192,320,111846,1,0
128,256,112028,1,0
96,192,112210,2,8,C|192:192,1,75
256,192,112573,5,0
320,128,112755,1,0
384,96,112937,1,8
448,64,113119,1,8
384,96,113301,1,0
320,128,113482,1,0
256,160,113664,1,8
192,192,113846,1,8
128,224,114028,1,0
160,288,114210,1,0
160,288,114301,1,0
160,288,114392,2,0,C|320:288|416:256,1,225
381,270,115119,6,0,C|341:114,1,150
344,126,115664,1,0
288,96,115846,1,0
224,96,116028,1,0
224,96,116119,1,0
224,96,116210,1,0
32,32,116573,6,8,C|128:128,1,75
160,160,116937,1,0
96,224,117119,1,0
160,288,117301,2,8,C|224:352,1,75
288,320,117664,5,0
352,256,117846,1,0
416,320,118028,2,8,C|480:256,1,75
416,192,118392,5,0
480,128,118574,1,0
416,64,118755,2,8,C|320:64,1,75
256,96,119119,5,0
192,32,119301,1,0
128,96,119483,2,8,C|64:160,1,75
128,192,119846,1,0
224,192,120028,5,0
224,192,120119,1,0
224,192,120210,1,0
288,160,120392,1,8
352,128,120574,1,8
384,192,120755,1,0
352,256,120937,1,0
288,288,121119,1,8
224,256,121301,1,8
224,192,121483,1,0
192,160,121574,1,0
224,128,121665,1,0
194,52,122392,6,0,C|110:52|110:58,3,75,8|8|0|0
128,64,123119,1,8
128,64,123301,1,8
128,64,123483,1,0
128,64,123665,1,0
128,64,123846,2,0,C|128:160,3,75,8|8|0|0
96,192,124574,1,8
128,256,124756,1,8
188,300,124937,5,4
330,251,125301,1,4
256,192,125846,5,0
256,192,125937,1,0
256,192,126028,1,0
192,192,126210,1,0
96,128,126574,5,0
128,128,126665,1,0
160,128,126756,1,4
384,128,127028,1,4
288,288,127301,1,4
224,288,127483,1,4
128,64,127847,5,0
192,96,128028,1,0
256,128,128210,2,0,C|352:256,1,150
288,288,128756,1,0
224,320,128937,1,0
160,288,129119,1,0
96,256,129301,1,0
96,192,129483,5,8
96,128,129665,1,8
192,160,129937,1,8
352,128,130210,5,8
352,192,130392,1,8
256,160,130665,1,8
160,224,130937,1,0
224,256,131119,1,0
384,224,131483,5,8
448,64,131847,1,8
384,64,132028,1,8
320,64,132210,1,8
160,96,132574,5,8
64,192,132938,1,8
192,320,133301,1,8
256,256,133483,1,8
192,160,133665,1,8
256,64,133847,1,8
320,160,134028,5,8
448,32,134392,1,8
384,224,134756,1,8
448,288,134938,1,8
352,320,135119,1,8
224,320,135483,5,8
96,224,135847,1,8
160,96,136210,1,8
224,96,136392,1,8
288,96,136574,1,8
256,320,136938,5,4
64,96,137665,5,4
416,96,138210,5,4
416,96,138392,1,4
416,96,138574,6,8,C|320:96,1,75
96,192,139120,6,0,C|224:192,1,75,0|8
192,224,139483,2,0,C|288:224,1,75,0|8
256,256,139847,2,0,C|352:256,1,75,0|8
384,288,140210,1,8
416,192,140574,1,0
384,128,140756,1,8
352,64,140938,1,8
192,64,141301,1,8
96,160,141665,1,8
192,288,142029,5,0
192,288,142211,1,8
192,288,142392,1,8
352,320,142756,1,8
288,192,143120,1,8
160,96,143483,5,0
160,96,143665,1,8
160,96,143847,1,8
192,224,144211,5,8
192,224,144392,1,0
192,224,144574,1,8
352,224,144938,5,0
352,224,145120,1,8
352,224,145302,1,8
416,96,145665,5,8
416,96,145847,1,0
416,96,146029,1,8
288,32,146392,5,0
160,128,146756,1,0
64,320,147120,1,4
256,64,147483,5,4
416,320,147847,5,4
256,192,148211,5,4
256,192,148392,12,4,149847
96,192,151483,6,0,C|256:96,1,150
224,114,152029,1,8
224,114,152211,2,0,C|384:224,1,150,8|0
348,199,152756,1,8
347,198,152938,2,0,C|212:296,1,150,8|0
226,286,153484,1,8
225,286,153665,2,0,C|95:192,1,150,8|0
96,64,154393,5,8
256,64,154756,1,8
384,128,155120,1,8
416,192,155302,1,8
384,256,155484,1,8
256,320,155847,1,8
160,192,156211,1,8
256,64,156575,1,8
192,32,156756,1,8
128,64,156938,1,8
96,128,157120,1,8
64,192,157302,5,4
64,320,157665,1,8
224,320,158029,1,8
288,288,158211,1,8
352,320,158393,1,8
448,224,158756,5,8
384,96,159120,1,0
224,64,159484,2,8,B|224:160,2,75
160,96,160029,1,8
96,128,160211,1,4
128,288,160575,1,8
288,288,160938,5,8
352,256,161120,1,8
416,288,161302,1,8
448,128,161666,1,8
320,64,162029,1,8
224,160,162393,6,8,B|320:224,4,75,8|8|8|8|4
256,192,171484,5,4
416,64,171848,5,4
256,192,172211,5,4
416,320,172575,5,4
256,192,172939,5,4
96,320,173302,5,4
256,192,173666,5,4
96,64,174030,5,4
256,192,174393,1,4
256,192,174757,12,0,179848
128,192,180211,5,0
192,256,180393,1,0
256,192,180575,1,8
416,256,180939,5,0
352,192,181121,1,0
416,128,181302,1,8
96,256,181666,5,0
160,192,181848,1,0
96,128,182030,1,8
192,32,182393,5,0
256,96,182575,1,0
320,32,182757,1,8
320,320,183121,5,0
256,256,183302,1,0
192,320,183484,1,8
96,192,183848,5,0
96,192,184030,1,0
96,192,184212,1,8
256,64,184575,5,0
256,64,184757,1,0
256,64,184939,1,8
384,192,185303,5,0
384,192,185484,1,0
384,192,185666,1,8
256,320,186030,5,0
256,320,186212,1,0
256,320,186393,1,8
256,192,186757,6,0,B|160:192,2,75,0|0|8
256,192,187484,6,0,B|352:192,2,75,0|0|8
256,192,188212,6,0,B|256:96,2,75,0|0|8
256,192,188939,6,0,B|256:288,2,75,0|0|8
256,192,189666,5,0
256,192,189848,1,0
256,192,190030,1,8
256,192,190394,5,0
192,128,190575,1,0
256,192,190757,1,8
256,192,191121,5,0
320,256,191303,1,0
256,192,191485,1,8
256,192,191848,5,0
192,256,192030,1,0
256,192,192212,1,8
96,160,192575,5,0
384,224,192939,1,8
96,256,193303,1,0
384,128,193666,1,8
96,64,194030,1,0
480,192,194394,6,0,B|256:192,1,150,8|0
32,192,195121,6,0,B|224:192,1,150,8|0
352,160,195848,1,8
64,288,196212,1,0
352,192,196576,6,0,B|352:352,1,150,8|0
416,64,197303,1,8
128,128,197666,1,0
384,288,198030,1,8
96,288,198394,1,0
416,288,198757,6,0,B|224:288,1,150,8|0
96,288,199485,2,0,B|256:288,1,150,8|0
448,224,200212,2,0,B|256:224,1,150,8|0
64,224,200939,2,0,B|224:224,1,150,8|0
448,64,201667,1,0
160,64,202030,1,0
256,192,202394,5,8
256,192,202758,5,8
352,192,202939,5,4
352,192,203030,1,4
352,192,203121,1,4
256,192,203364,5,4
160,192,203606,5,12
256,192,203848,12,0,206758
