osu file format v9

[General]
AudioFilename: Yami_to_Boushi_to_Hon_no_Tabibito_-_Hitomi_no_Naka_no_Meikyuu.mp3
AudioLeadIn: 3000
PreviewTime: -1
Countdown: 2
SampleSet: Normal
StackLeniency: 0.7
Mode: 0
LetterboxInBreaks: 1

[Editor]
DistanceSpacing: 1
BeatDivisor: 4
GridSize: 8

[Metadata]
Title:Hitomi no Naka no Meikyuu
Artist:Kayo Aiko
Creator:rika
Version:Normal
Source:
Tags:

[Difficulty]
HPDrainRate:1
CircleSize:4
OverallDifficulty:1
ApproachRate:1
SliderMultiplier:1
SliderTickRate:2

[Events]
//Background and Video events
0,0,"25383480_18727245_1095490097895.jpg"
//Break Periods
2,16371,29910
2,44348,44561
2,93650,100607
//Storyboard Layer 0 (Background)
//Storyboard Layer 1 (Fail)
//Storyboard Layer 2 (Pass)
//Storyboard Layer 3 (Foreground)
//Storyboard Sound Samples
//Background Colour Transformations
3,100,161,160,252

[TimingPoints]
1288,465.116279069767,4,2,0,30,1,0
31590,465.116279069767,4,1,0,30,1,0
165110,465.116279069767,4,2,0,30,1,0
172550,465.116279069767,4,1,0,30,1,0

[Colours]
Combo1 : 0,255,255
Combo2 : 40,205,31
Combo3 : 45,88,228
Combo4 : 200,38,38
Combo5 : 255,150,0

[HitObjects]
0,32,1288,2,0,B|160:32|160:32,1,133.333333333333
160,96,2218,5,2
192,128,2450,1,2
224,160,2683,1,2
288,96,3148,6,0,B|384:96|416:96,1,100
384,192,3846,5,2
384,224,4078,1,0
384,272,4311,1,2
192,320,5241,5,2
160,288,5474,1,2
128,256,5706,1,2
96,224,5939,1,6
32,96,6636,1,2
96,96,6869,2,0,B|224:96,1,100
256,192,7799,5,0
320,192,8032,1,2
384,192,8264,1,2
352,160,8497,2,2,B|496:128,1,100
256,192,9427,12,0,10590
160,192,11287,5,2
256,208,11520,1,0
352,192,11753,1,2
256,192,12218,12,4,16171
480,32,31590,5,0
480,96,31822,1,0
480,160,32055,2,0,B|480:288|384:192,1,150
288,160,33217,1,0
224,160,33450,1,0
160,160,33683,1,0
64,96,35310,5,0
32,128,35543,1,0
64,160,35776,1,0
160,160,36241,1,0
256,192,36706,5,0
288,224,36938,1,0
256,256,37171,1,0
320,256,37403,1,0
320,192,37636,1,0
448,224,39031,6,0,B|320:224,1,125
248,224,39962,1,0
224,352,40427,5,0
192,320,40659,1,0
160,288,40892,1,0
128,256,41124,1,0
32,288,42287,5,0
32,192,42752,1,2
32,160,42985,2,0,B|128:64,1,125
224,64,43915,1,0
256,64,44148,1,0
480,32,46241,5,0
480,96,46473,1,0
480,288,46706,1,0
480,352,46938,1,0
352,288,47636,5,0
352,224,47869,1,0
352,128,48217,1,0
416,64,48566,1,0
448,96,48799,2,0,B|448:256,1,133.333333333333
448,280,49962,5,0
320,192,50194,1,0
320,64,50427,1,0
448,64,50659,1,0
448,160,51124,1,0
256,192,51357,12,0,52520
392,296,53683,6,0,B|424:248|408:200,1,100
320,160,54380,1,0
160,192,55078,1,0
96,128,55310,1,0
160,128,55543,2,0,B|256:128,1,75
320,128,56241,1,0
480,64,57403,5,0
448,96,57636,1,0
384,32,58101,1,0
352,64,58334,1,0
200,64,59031,5,0
136,136,59496,1,0
168,232,59962,1,0
248,296,60427,1,0
256,192,60892,12,0,64148
64,352,64613,5,0
0,256,65078,1,0
0,192,65310,1,0
64,96,65776,1,0
128,96,66008,5,0
128,256,66706,1,0
192,256,66938,1,0
320,192,67636,1,0
288,152,67869,1,0
256,256,68566,5,0
288,288,68799,1,0
352,288,69031,1,0
384,256,69264,2,0,B|384:136,1,100
384,64,70194,2,0,B|64:96,1,300
96,160,72055,5,0
96,256,72520,1,0
160,256,72752,1,0
160,384,73450,1,0
192,384,73683,5,0
288,320,74380,1,0
320,288,74613,1,0
416,128,75543,1,0
448,96,75776,1,0
96,32,77403,5,0
160,32,77636,2,0,B|160:96,1,50
160,128,78101,1,0
256,128,78566,2,0,B|232:190|160:160,1,100
224,256,79496,5,0
128,320,79962,1,0
96,320,80194,1,0
0,224,80892,1,0
32,192,81124,5,0
96,160,81589,1,0
128,128,81822,1,0
128,64,82055,5,0
64,64,82287,2,0,B|8:104,1,50
0,192,82985,1,0
96,192,83450,5,0
128,224,83683,1,0
160,256,83915,1,0
224,256,84148,1,0
224,192,85078,1,0
272,200,85543,6,0,B|336:200,1,50
352,224,86008,1,0
384,256,86241,1,0
416,224,86473,1,0
448,192,86706,1,0
448,128,86938,2,0,B|448:24,1,100
416,96,87869,5,0
384,64,88101,1,0
352,96,88334,1,0
320,128,88566,1,0
288,96,88799,2,0,B|192:64,1,100
96,64,89729,5,0
96,128,89962,1,0
96,192,90194,1,0
32,192,90427,1,0
32,256,90659,2,0,B|32:368,1,100
96,352,91357,1,0
256,192,91589,12,0,93450
32,32,102287,5,0
32,128,102752,1,0
32,224,103217,2,0,B|104:224,1,50
128,224,103683,5,0
160,192,103915,1,0
224,128,104380,1,0
256,96,104613,2,0,B|328:96,1,50
352,96,105078,2,0,B|413:81|440:152,1,100
288,320,106008,5,0
320,288,106241,1,0
352,256,106473,1,0
384,224,106706,2,0,B|384:160,1,50
352,128,107171,5,0
320,96,107403,1,0
160,128,108101,1,0
128,96,108334,1,0
32,224,109729,5,0
64,256,109962,1,0
128,256,110194,1,0
192,256,110427,1,0
256,224,110892,5,0
224,192,111124,1,0
192,224,111357,1,0
160,256,111589,1,0
192,288,111822,1,0
256,288,112055,2,0,B|292:232|240:176,1,100
384,192,112985,6,0,B|384:136,1,50
352,128,113450,2,0,B|352:72,1,50
256,64,114148,6,0,B|200:64,1,50
160,64,114613,1,0
96,64,114845,2,0,B|-78:159|96:304,1,300
32,320,116938,5,0
96,320,117171,1,0
160,320,117403,1,0
224,320,117636,1,0
384,320,118334,5,0
384,256,118566,1,0
384,192,118799,1,0
384,96,119264,2,0,B|272:96,1,100
32,32,120659,6,0,B|32:114,1,75
32,184,121357,1,0
96,224,121589,6,0,B|177:224|119:181|198:184,1,100,0|0
224,160,122287,1,0
288,160,122520,1,0
352,160,122752,1,0
384,192,122985,2,0,B|435:183|439:235|480:224,2,100
448,128,124380,5,0
384,128,124613,1,0
320,128,124845,1,0
256,128,125078,2,0,B|256:8,1,100
160,0,125776,5,0
96,0,126008,1,0
64,32,126473,1,0
32,64,126706,1,0
32,96,126938,2,0,B|32:224,1,125
0,160,128101,5,0
64,160,128334,1,0
128,160,128566,1,0
192,160,128799,1,0
160,224,129729,5,0
64,192,130194,1,0
96,96,130659,1,0
192,96,131124,2,0,B|255:67|304:112,1,100
256,192,132055,12,0,134845
480,32,135310,5,0
480,96,135543,1,0
416,96,135776,1,0
416,160,136241,1,0
352,160,136473,5,0
288,160,136706,1,0
320,224,137171,5,0
320,288,137403,1,0
256,288,137636,1,0
192,288,137869,1,0
192,192,138334,5,0
192,144,138566,1,0
152,120,138799,1,0
32,128,139264,5,0
64,192,139496,1,0
0,192,139729,1,0
32,224,139962,2,0,B|32:296,1,50
64,288,140427,1,0
128,288,140659,1,0
192,288,140892,1,0
256,288,141124,1,0
320,288,141357,1,0
256,288,141589,5,0
256,288,141822,1,0
352,320,142752,5,0
384,288,142985,1,0
416,256,143217,1,0
352,128,143915,1,0
288,128,144148,1,0
224,128,144380,5,0
160,64,144845,1,0
96,64,145078,1,0
96,128,145310,1,0
224,224,146008,1,0
256,256,146241,1,0
288,288,146473,2,0,B|463:283|456:120,1,250
288,64,148101,5,0
224,64,148334,1,0
128,64,148799,1,0
32,64,149264,2,0,B|32:176,1,100
128,128,150194,5,0
160,160,150427,1,0
192,192,150659,1,0
224,224,150892,1,0
288,160,151357,5,0
320,192,151589,1,0
352,224,151822,1,0
352,288,152287,1,0
288,288,152520,1,0
224,288,152752,1,0
192,224,153217,1,0
288,160,153450,1,0
384,224,153683,1,0
416,288,154148,5,0
320,288,154380,1,0
224,288,154613,1,0
128,288,154845,1,0
192,224,155310,1,0
224,192,155543,1,0
256,160,155776,5,0
288,64,156241,1,0
192,32,156706,1,0
160,32,156938,1,0
96,64,157171,1,0
32,128,157520,2,0,B|12:198|56:264,1,125
128,256,158334,5,0
192,256,158799,1,0
256,256,159031,1,0
256,192,159264,2,0,B|256:128,3,50
224,160,160194,5,0
176,136,160427,1,0
48,216,161124,1,0
96,256,161357,2,0,B|72:304|104:360,1,100
256,192,162287,12,0,164613
64,64,165110,5,2
160,64,165575,1,2
448,256,166040,5,2
352,256,166505,1,0
128,256,166970,5,2
32,256,167435,1,2
32,160,167900,5,2
256,160,168133,1,2
480,160,168365,1,2
256,224,168830,5,2
192,160,169296,1,2
0,224,169761,5,2
64,288,170226,1,0
192,288,171156,5,2
256,224,171389,1,0
320,160,171854,1,0
