osu file format v12

[General]
AudioFilename: may i help you.mp3
AudioLeadIn: 0
PreviewTime: 56908
Countdown: 0
SampleSet: Soft
StackLeniency: 0.7
Mode: 0
LetterboxInBreaks: 0
WidescreenStoryboard: 0

[Editor]
Bookmarks: 3708,8508,10108,16108,16508
DistanceSpacing: 0.7
BeatDivisor: 4
GridSize: 4

[Metadata]
Title:May I help you? (TV Size)
TitleUnicode:めいあいへるぷゆー?(TV Size)
Artist:Kayano Ai, Nakahara Mai & Toyosaki Aki
ArtistUnicode:茅野愛衣, 中原麻衣 & 豊崎愛生
Creator:TaMul
Version:Insane
Source:Servant x Service
Tags:mingmichael
BeatmapID:287736
BeatmapSetID:108297

[Difficulty]
HPDrainRate:7
CircleSize:4
OverallDifficulty:8
ApproachRate:9
SliderMultiplier:2.4
SliderTickRate:2

[Events]
//Background and Video events
Video,0,"servant.flv"
0,0,"igODoGq9FkMVQ.jpg",0,0
//Break Periods
//Storyboard Layer 0 (Background)
//Storyboard Layer 1 (Fail)
//Storyboard Layer 2 (Pass)
//Storyboard Layer 3 (Foreground)
//Storyboard Sound Samples
//Background Colour Transformations
3,100,163,162,255

[TimingPoints]
508,400,4,2,1,80,1,0
2108,-133.333333333333,4,2,1,80,0,0
2908,-76.9230769230769,4,2,1,80,0,0
3708,-100,4,1,1,80,0,0
3908,-100,4,2,0,80,0,0
8508,-100,4,3,0,80,0,0
10108,-100,4,2,0,80,0,0
17908,-100,4,2,0,40,0,0
18108,-100,4,2,1,80,0,0
23908,-133.333333333333,4,2,1,80,0,0
24508,-100,4,2,1,80,0,0
27708,-100,4,2,0,80,0,0
29308,-100,4,2,1,80,0,0
40508,-100,4,2,0,80,0,0
42108,-100,4,1,1,80,0,0
56508,-100,4,2,1,80,0,0
58108,-100,4,1,1,80,0,1
67708,-100,4,2,1,80,0,0
69308,-133.333333333333,4,2,1,80,0,0
70108,-76.9230769230769,4,2,1,80,0,0
71108,-100,4,2,1,80,0,0
75708,-100,4,3,0,80,0,0
77308,-100,4,2,1,80,0,0
82108,-100,4,3,0,80,0,0
85308,-76.9230769230769,4,2,1,80,0,0

[Colours]
Combo1 : 128,128,255
Combo2 : 0,255,0
Combo3 : 0,255,128
Combo4 : 255,128,128

[HitObjects]
184,312,508,2,0,L|116:324,1,60
328,72,1108,2,0,L|396:60,1,60
256,352,1708,5,0,0:0:0:0:
256,352,1808,1,0,0:0:0:0:
364,120,2108,2,0,P|260:52|144:132,1,270.000010299683,4|0,0:0|0:0,0:0:0:0:
108,240,2908,6,2,B|172:316|344:336|448:112|256:0|84:100|188:328|448:224,1,623.999971435548,0|6,0:0|0:0,0:0:0:0:
512,148,3908,5,0,0:0:0:0:
456,40,4108,1,2,0:0:0:0:
348,96,4308,1,0,0:0:0:0:
404,204,4508,6,0,P|408:268|364:332,1,120,2|0,0:0|0:0,0:0:0:0:
308,288,4808,2,0,P|256:260|204:288,1,120,2|0,0:0|0:0,0:0:0:0:
129,315,5108,2,0,P|104:268|108:204,1,120,2|2,0:0|0:0,0:0:0:0:
0,148,5508,5,0,0:0:0:0:
56,40,5708,1,2,0:0:0:0:
108,204,5908,1,0,0:0:0:0:
164,96,6108,2,0,B|252:124|252:76|344:104,2,180,2|2|2,0:0|0:0|0:0,0:0:0:0:
432,192,6908,6,0,P|468:144|468:68,1,120,2|0,0:0|0:0,0:0:0:0:
328,196,7308,2,0,P|344:264|448:296,1,180,2|0,0:0|0:0,0:0:0:0:
432,192,7708,2,0,L|312:336,2,180,2|2|2,0:0|0:0|0:0,0:0:0:0:
256,32,8508,6,0,L|256:152,1,120,12|0,0:0|0:0,0:0:0:0:
188,252,8908,2,0,L|248:280,1,60,2|0,0:0|0:0,0:0:0:0:
72,264,9108,2,0,L|17:238,1,60
120,196,9308,6,0,P|140:132|152:68,1,120,2|0,0:0|0:0,0:0:0:0:
256,32,9608,2,0,L|256:152,1,120,2|0,0:0|0:0,0:0:0:0:
392,196,9908,2,0,P|372:132|361:80,1,120,2|6,0:0|0:0,0:0:0:0:
480,88,10308,5,0,0:0:0:0:
480,88,10408,1,0,0:0:0:0:
480,88,10508,1,2,0:0:0:0:
256,152,10708,1,0,0:0:0:0:
392,196,10908,2,0,P|384:268|360:320,1,120,2|0,0:0|0:0,0:0:0:0:
256,352,11208,2,0,L|256:232,1,120,2|0,0:0|0:0,0:0:0:0:
120,196,11508,2,0,P|128:268|152:320,1,120,2|0,0:0|0:0,0:0:0:0:
28,312,11908,1,2,0:0:0:0:
256,232,12108,5,2,0:0:0:0:
16,192,12308,1,0,0:0:0:0:
160,336,12508,2,0,P|212:372|292:368,1,120,2|0,0:0|0:0,0:0:0:0:
296,364,12808,2,0,P|360:328|412:332,1,120,2|0,0:0|0:0,0:0:0:0:
432,344,13108,2,0,L|412:224,1,120,2|2,0:0|0:0,0:0:0:0:
456,112,13508,5,0,0:0:0:0:
428,116,13608,1,0,0:0:0:0:
400,112,13708,2,0,P|336:92|264:112,1,120,2|0,0:0|0:0,0:0:0:0:
236,212,14108,2,0,P|236:100|172:80,1,180,2|0,0:0|0:0,0:0:0:0:
156,164,14508,2,0,P|140:224|172:288,1,120,2|0,0:0|0:0,0:0:0:0:
272,316,14908,6,0,P|332:300|392:320,1,120,2|0,0:0|0:0,0:0:0:0:
408,196,15308,1,0,0:0:0:0:
424,236,15408,1,2,3:0:0:0:
512,156,15608,1,0,0:0:0:0:
508,196,15708,1,2,3:0:0:0:
500,280,15908,1,0,3:0:0:0:
488,64,16108,1,0,0:0:0:0:
460,76,16208,1,0,0:0:0:0:
432,80,16308,1,0,0:0:0:0:
404,76,16408,1,0,0:0:0:0:
376,64,16508,6,0,L|352:124,1,60,4|0,0:0|0:0,0:0:0:0:
256,192,16708,2,0,L|256:128,1,60
280,32,16908,2,0,P|220:32|172:68,1,120
100,196,17208,2,0,P|100:128|56:84,1,120
173,66,17508,6,0,P|204:144|200:188,1,120,0|4,0:0|0:0,0:0:0:0:
12,172,17908,1,0,0:0:0:0:
12,172,18108,6,0,L|12:244,1,60
84,364,18308,2,0,L|84:304,1,60,0|0,0:0|0:0,0:0:0:0:
88,137,18508,2,0,L|100:196,1,60,8|0,0:0|0:0,0:0:0:0:
164,328,18708,2,0,L|152:269,1,60
148,240,18908,5,0,0:0:0:0:
176,248,19008,1,0,0:0:0:0:
204,248,19108,1,0,0:0:0:0:
232,240,19208,1,0,0:0:0:0:
256,224,19308,2,0,P|312:192|380:208,1,120,8|0,0:0|0:0,0:0:0:0:
388,216,19608,1,0,0:0:0:0:
396,188,19708,6,0,L|408:120,1,60,4|0,0:0|0:0,0:0:0:0:
352,0,19908,2,0,L|341:59,1,60,0|0,0:0|0:0,0:0:0:0:
312,140,20108,2,0,P|244:120|176:124,1,120
28,192,20408,2,0,P|96:212|208:192,1,180
312,140,20908,6,0,P|380:132|448:152,1,120,4|0,0:0|0:0,0:0:0:0:
456,160,21208,1,0,0:0:0:0:
456,160,21308,6,0,B|432:280|432:280|412:224,1,180
364,344,21708,2,0,B|320:216|320:216|304:272,1,180,8|0,0:0|0:0,0:0:0:0:
212,316,22108,2,0,L|248:192,1,120
72,88,22508,2,0,L|36:212,1,120,8|0,0:0|0:0,0:0:0:0:
32,232,22808,1,0,0:0:0:0:
60,224,22908,6,0,L|128:236,1,60,4|0,0:0|0:0,0:0:0:0:
256,192,23108,2,0,L|196:181,1,60,0|0,0:0|0:0,0:0:0:0:
200,264,23308,2,0,P|184:328|192:384,1,120
288,276,23608,2,0,P|335:321|387:342,1,120
408,340,23908,2,0,L|432:244,2,90.0000034332277,0|4|0,0:0|0:0|0:0,0:0:0:0:
484,36,24508,5,0,0:0:0:0:
456,48,24608,1,0,0:0:0:0:
428,44,24708,1,0,0:0:0:0:
400,52,24808,1,0,0:0:0:0:
372,48,24908,1,8,0:0:0:0:
344,56,25008,1,0,0:0:0:0:
316,48,25108,1,0,0:0:0:0:
288,60,25208,1,0,0:0:0:0:
260,56,25308,6,0,P|232:64|180:64,1,60
48,32,25508,2,0,P|78:34|106:42,1,60
132,56,25708,5,8,0:0:0:0:
108,72,25808,1,0,0:0:0:0:
100,100,25908,1,0,0:0:0:0:
104,128,26008,1,0,0:0:0:0:
124,148,26108,6,0,P|152:184|164:224,1,60
242,193,26308,2,0,P|252:220|252:252,1,60
340,240,26508,2,0,P|340:280|324:312,1,60,8|0,0:0|0:0,0:0:0:0:
425,313,26708,2,0,P|416:340|400:368,1,60
256,352,26908,5,0,0:0:0:0:
228,340,27008,1,0,0:0:0:0:
200,328,27108,1,0,0:0:0:0:
172,316,27208,1,0,0:0:0:0:
144,304,27308,2,0,P|68:332|80:264,1,180,8|0,0:0|0:0,0:0:0:0:
200,232,27708,6,0,L|320:288,1,120,0|2,0:0|0:0,0:0:0:0:
424,312,28108,1,2,0:0:0:0:
392,196,28308,2,0,L|396:124,1,60
256,32,28508,1,2,0:0:0:0:
200,232,28708,1,2,0:0:0:0:
48,92,28908,2,0,L|-4:76,5,40,2|0|0|0|0|0,0:0|0:0|0:0|0:0|0:0|0:0,0:0:0:0:
48,92,29308,6,0,B|112:96|112:96|188:120,1,120,4|0,0:0|0:0,0:0:0:0:
188,124,29608,1,0,0:0:0:0:
212,132,29708,2,0,B|268:152|268:152|340:152,1,120
381,104,30008,2,0,P|332:96|328:152,1,120
248,22,30308,6,0,P|224:56|212:132,1,120,0|4,0:0|0:0,0:0:0:0:
256,244,30708,1,0,0:0:0:0:
256,244,30908,6,0,L|248:308,1,60
160,276,31108,2,0,L|160:344,1,60
72,352,31308,1,8,0:0:0:0:
72,324,31408,1,0,0:0:0:0:
72,296,31508,1,0,0:0:0:0:
72,268,31608,1,0,0:0:0:0:
72,240,31708,6,0,B|100:112|100:112|48:136,1,180
192,80,32108,2,0,L|164:208,1,120,8|0,0:0|0:0,0:0:0:0:
256,280,32508,6,0,L|316:296,1,60,4|0,0:0|0:0,0:0:0:0:
464,376,32708,2,0,L|406:360,1,60
420,248,32908,2,0,P|432:172|432:116,1,120
332,192,33208,2,0,P|332:112|320:60,1,120
188,73,33508,2,0,P|180:112|180:192,2,120,0|4|0,0:0|0:0|0:0,0:0:0:0:
103,273,34108,6,0,P|60:208|40:268,1,180
138,350,34508,2,0,P|192:272|179:191,1,180,8|0,0:0|0:0,0:0:0:0:
256,32,34908,2,0,B|240:96|272:96|256:152,1,120
264,180,35208,1,0,0:0:0:0:
288,160,35308,6,0,P|356:176|416:168,1,120,8|0,0:0|0:0,0:0:0:0:
400,352,35708,5,4,0:0:0:0:
380,332,35808,1,0,0:0:0:0:
352,324,35908,1,0,0:0:0:0:
324,328,36008,1,0,0:0:0:0:
300,344,36108,2,0,P|232:364|172:336,1,120
172,324,36408,2,0,B|184:260|152:220|152:220|128:248|128:292,1,180
8,268,36908,2,0,P|16:212|48:152,1,120,4|0,0:0|0:0,0:0:0:0:
160,116,37308,5,0,0:0:0:0:
188,124,37408,1,0,0:0:0:0:
216,124,37508,1,0,0:0:0:0:
244,116,37608,1,0,0:0:0:0:
268,100,37708,2,0,L|288:168,1,60,8|0,0:0|0:0,0:0:0:0:
372,132,37908,2,0,L|380:204,1,60
468,220,38108,6,0,L|468:300,1,60
324,352,38308,2,0,L|324:284,1,60
396,264,38508,2,0,L|396:324,1,60,8|0,0:0|0:0,0:0:0:0:
252,320,38708,2,0,L|252:260,1,60
252,228,38908,5,0,0:0:0:0:
224,244,39008,1,0,0:0:0:0:
196,248,39108,1,0,0:0:0:0:
168,244,39208,1,0,0:0:0:0:
144,224,39308,1,8,0:0:0:0:
136,196,39408,1,0,0:0:0:0:
140,168,39508,1,0,0:0:0:0:
156,144,39608,1,0,0:0:0:0:
180,128,39708,5,0,0:0:0:0:
208,120,39808,1,0,0:0:0:0:
236,120,39908,1,0,0:0:0:0:
264,128,40008,1,0,0:0:0:0:
292,140,40108,1,8,0:0:0:0:
320,148,40208,1,0,0:0:0:0:
348,152,40308,1,0,0:0:0:0:
376,152,40408,1,0,0:0:0:0:
404,144,40508,6,0,L|424:276,1,120,0|2,0:0|0:0,0:0:0:0:
476,68,40908,2,0,L|500:264,1,180,2|0,0:0|0:0,0:0:0:0:
421,262,41308,2,0,P|356:248|296:268,1,120,2|2,0:0|0:0,0:0:0:0:
44,296,41708,2,0,P|92:348|192:328,1,180,2|0,0:0|0:0,0:0:0:0:
191,328,42108,5,4,0:0:0:0:
144,216,42308,1,0,0:0:0:0:
224,128,42508,1,10,0:0:0:0:
340,156,42708,1,0,0:0:0:0:
340,156,42808,1,0,0:0:0:0:
340,156,42908,1,2,0:0:0:0:
144,216,43108,1,0,0:0:0:0:
288,344,43308,1,10,0:0:0:0:
224,128,43508,6,0,L|264:256,1,120,2|0,0:0|0:0,0:0:0:0:
144,216,43908,2,0,L|108:101,1,120,2|8,0:0|0:0,0:0:0:0:
304,40,44308,1,2,0:0:0:0:
304,40,44408,1,0,0:0:0:0:
304,40,44508,2,0,L|339:154,1,120,0|2,0:0|0:0,0:0:0:0:
364,172,44808,1,0,0:0:0:0:
388,188,44908,2,0,L|428:304,1,120,10|0,0:0|0:0,0:0:0:0:
312,340,45308,5,0,0:0:0:0:
504,196,45508,1,2,0:0:0:0:
312,340,45708,2,0,P|216:312|188:320,1,120,10|0,0:0|0:0,0:0:0:0:
427,301,46108,1,2,0:0:0:0:
312,340,46308,1,0,0:0:0:0:
256,236,46508,2,0,P|264:176|244:116,1,120,10|0,0:0|0:0,0:0:0:0:
152,192,46908,6,2,P|140:264|224:348,1,180
256,236,47308,2,0,B|340:264|340:200|440:232,1,180,10|0,0:0|0:0,0:0:0:0:
392,316,47708,1,2,0:0:0:0:
288,144,47908,1,0,0:0:0:0:
204,328,48108,1,10,0:0:0:0:
492,140,48308,1,0,0:0:0:0:
492,140,48408,1,0,0:0:0:0:
492,140,48508,6,2,P|424:176|372:164,1,120,4|0,0:0|0:0,0:0:0:0:
48,84,48908,2,0,P|132:60|232:76,1,180,10|2,0:0|0:0,0:0:0:0:
288,144,49308,1,0,0:0:0:0:
256,260,49508,1,0,0:0:0:0:
176,172,49708,1,10,0:0:0:0:
288,144,49908,5,2,0:0:0:0:
288,144,50008,1,0,0:0:0:0:
288,144,50108,1,0,0:0:0:0:
136,280,50308,1,2,0:0:0:0:
336,332,50508,1,8,0:0:0:0:
176,172,50708,6,0,P|224:248|368:220,1,240,2|0,0:0|0:0,0:0:0:0:
288,144,51308,1,10,0:0:0:0:
136,280,51508,1,0,0:0:0:0:
88,84,51708,5,4,0:0:0:0:
88,84,51808,2,0,L|224:64,1,120
424,300,52308,1,4,0:0:0:0:
424,300,52408,2,0,L|288:320,1,120
32,192,52908,5,4,0:0:0:0:
32,192,53008,2,0,L|160:192,1,120
480,192,53508,1,4,0:0:0:0:
480,192,53608,2,0,L|352:192,1,120
176,352,54008,5,0,0:0:0:0:
176,352,54108,1,4,0:0:0:0:
256,148,54308,1,0,0:0:0:0:
336,352,54508,1,0,0:0:0:0:
148,224,54708,1,0,0:0:0:0:
364,224,54908,1,0,0:0:0:0:
364,224,55008,6,0,P|388:152|380:104,1,120
130,109,55408,2,0,P|124:152|148:224,1,120
256,148,55708,2,0,L|256:16,2,120
256,268,56308,1,0,0:0:0:0:
256,268,56408,1,0,0:0:0:0:
256,268,56508,1,4,0:0:0:0:
256,192,56708,12,0,57708,0:0:0:0:
88,96,58108,6,0,P|144:128|216:120,1,120,6|0,0:0|0:0,0:0:0:0:
424,96,58508,2,2,P|368:128|296:120,1,120,8|0,0:0|0:0,0:0:0:0:
256,20,58908,1,2,0:0:0:0:
256,20,59008,2,0,B|244:88|272:88|256:144,1,120
257,138,59308,2,0,P|240:208|248:260,1,120,10|0,0:0|0:0,0:0:0:0:
356,208,59708,1,2,0:0:0:0:
120,192,59908,1,0,0:0:0:0:
120,192,60108,6,2,P|76:260|24:264,1,120,8|0,0:0|0:0,0:0:0:0:
32,176,60408,2,2,P|76:108|128:104,1,120,8|0,0:0|0:0,0:0:0:0:
120,192,60708,2,0,P|184:228|232:220,1,120,0|10,0:0|0:0,0:0:0:0:
256,104,61108,1,0,0:0:0:0:
392,192,61308,6,0,P|328:228|280:220,1,120,6|0,0:0|0:0,0:0:0:0:
368,96,61708,2,2,P|440:88|488:232,1,240,10|0,0:0|0:0,0:0:0:0:
472,352,62208,2,0,P|420:308|368:320,1,120,2|0,0:0|0:0,0:0:0:0:
373,316,62508,2,0,P|320:348|256:320,1,120,10|0,0:0|0:0,0:0:0:0:
256,212,62908,5,2,0:0:0:0:
148,260,63108,1,0,0:0:0:0:
52,192,63308,2,0,P|88:128|80:80,1,120,10|0,0:0|0:0,0:0:0:0:
256,212,63708,2,2,P|232:140|188:212,1,180,2|0,0:0|0:0,0:0:0:0:
312,268,64108,2,0,P|344:204|336:136,1,120,10|0,0:0|0:0,0:0:0:0:
448,96,64508,6,0,P|460:168|400:332,1,240,6|10,0:0|0:0,0:0:0:0:
288,344,65108,2,0,P|224:324|168:332,1,120,0|2,0:0|0:0,0:0:0:0:
172,330,65408,2,0,P|180:264|160:212,1,120,2|0,0:0|0:0,0:0:0:0:
48,160,65708,2,0,P|40:226|60:278,1,120,10|0,0:0|0:0,0:0:0:0:
162,215,66108,5,2,0:0:0:0:
256,140,66308,1,0,0:0:0:0:
368,188,66508,1,10,0:0:0:0:
380,308,66708,1,0,0:0:0:0:
380,308,66808,1,0,0:0:0:0:
380,308,66908,6,0,L|408:368,1,60,2|0,0:0|0:0,0:0:0:0:
284,288,67108,2,0,L|284:228,1,60
172,316,67308,2,0,L|180:380,1,60,10|0,0:0|0:0,0:0:0:0:
164,216,67508,2,0,L|156:152,1,60
68,236,67708,6,0,P|56:192|4:236,1,120,4|2,0:0|0:0,0:0:0:0:
164,216,68108,2,0,P|140:148|96:112,1,120,2|0,0:0|0:0,0:0:0:0:
256,32,68508,1,2,0:0:0:0:
256,32,68608,2,0,L|256:156,1,120,2|0,0:0|0:0,0:0:0:0:
256,184,68908,1,2,0:0:0:0:
256,216,69008,1,0,0:0:0:0:
256,244,69108,1,0,0:0:0:0:
364,264,69308,6,0,P|260:332|144:252,1,270.000010299683,2|0,0:0|0:0,0:0:0:0:
108,144,70108,6,2,B|172:68|344:48|448:272|256:384|84:284|188:56|448:160,1,623.999971435548,2|6,0:0|0:0,0:0:0:0:
0,236,71108,5,0,0:0:0:0:
56,344,71308,1,2,0:0:0:0:
164,288,71508,1,0,0:0:0:0:
108,180,71708,6,0,P|104:116|148:52,1,120,2|0,0:0|0:0,0:0:0:0:
204,80,72008,2,0,P|256:108|308:80,1,120,2|0,0:0|0:0,0:0:0:0:
383,69,72308,2,0,P|408:116|404:180,1,120,2|0,0:0|0:0,0:0:0:0:
512,236,72708,5,2,0:0:0:0:
456,344,72908,1,2,0:0:0:0:
404,180,73108,1,0,0:0:0:0:
348,288,73308,2,0,B|260:260|260:308|168:280,2,180,2|2|2,0:0|0:0|0:0,0:0:0:0:
80,192,74108,6,0,P|44:240|44:316,1,120,2|0,0:0|0:0,0:0:0:0:
184,188,74508,2,0,P|168:120|64:88,1,180,2|0,0:0|0:0,0:0:0:0:
80,192,74908,2,0,L|200:48,2,180,2|2|2,0:0|0:0|0:0,0:0:0:0:
256,352,75708,6,0,L|256:232,1,120,8|0,0:0|0:0,0:0:0:0:
324,132,76108,2,0,L|264:104,1,60,2|0,0:0|0:0,0:0:0:0:
440,120,76308,2,0,L|495:146,1,60
392,188,76508,6,0,P|372:252|360:316,1,120,2|0,0:0|0:0,0:0:0:0:
256,352,76808,2,0,L|256:232,1,120,2|0,0:0|0:0,0:0:0:0:
120,188,77108,2,4,P|140:252|151:304,1,120,2|6,0:0|0:0,0:0:0:0:
32,296,77508,5,0,0:0:0:0:
32,296,77608,1,0,0:0:0:0:
32,296,77708,1,2,0:0:0:0:
256,232,77908,1,0,0:0:0:0:
120,188,78108,2,0,P|128:116|152:64,1,120,2|0,0:0|0:0,0:0:0:0:
256,32,78408,2,0,L|256:152,1,120,2|0,0:0|0:0,0:0:0:0:
392,188,78708,2,0,P|384:116|360:64,1,120,2|0,0:0|0:0,0:0:0:0:
484,72,79108,1,2,0:0:0:0:
256,152,79308,5,2,0:0:0:0:
496,192,79508,1,0,0:0:0:0:
352,48,79708,2,0,P|300:12|220:16,1,120,2|0,0:0|0:0,0:0:0:0:
216,20,80008,2,0,P|152:56|100:52,1,120,2|0,0:0|0:0,0:0:0:0:
80,40,80308,2,0,L|100:160,1,120,2|2,0:0|0:0,0:0:0:0:
56,272,80708,5,0,0:0:0:0:
84,268,80808,1,0,0:0:0:0:
112,272,80908,2,0,P|176:292|248:272,1,120,2|0,0:0|0:0,0:0:0:0:
276,172,81308,2,0,P|276:284|340:304,1,180,2|0,0:0|0:0,0:0:0:0:
356,220,81708,2,0,P|372:160|340:96,1,120,2|0,0:0|0:0,0:0:0:0:
160,108,82108,2,0,P|140:160|156:220,1,120,2|0,0:0|0:0,0:0:0:0:
256,284,82508,5,2,0:0:0:0:
248,256,82608,1,0,0:0:0:0:
264,232,82708,1,0,0:0:0:0:
252,204,82808,1,0,0:0:0:0:
264,176,82908,1,2,0:0:0:0:
256,148,83008,1,0,0:0:0:0:
256,120,83108,1,0,0:0:0:0:
256,92,83208,1,0,0:0:0:0:
256,64,83308,6,0,L|256:0,4,60,2|0|0|0|2,0:0|0:0|0:0|0:0|0:0,0:0:0:0:
156,292,84108,6,0,P|180:236|276:276,1,180
340,212,84508,2,0,L|356:332,1,120
436,344,84808,2,0,L|412:164,1,180
264,124,85308,22,2,B|316:152|340:216|340:216|372:136|436:104|480:100,1,311.999985717774,0|14,0:0|0:0,0:0:0:0:
