osu file format v12

[General]
AudioFilename: may i help you.mp3
AudioLeadIn: 0
PreviewTime: 56908
Countdown: 0
SampleSet: Soft
StackLeniency: 0.7
Mode: 0
LetterboxInBreaks: 0
WidescreenStoryboard: 1

[Editor]
Bookmarks: 3708,8508,10108,16108,16508
DistanceSpacing: 1
BeatDivisor: 4
GridSize: 4

[Metadata]
Title:May I help you? (TV Size)
TitleUnicode:めいあいへるぷゆー?(TV Size)
Artist:Kayano Ai, Nakahara Mai & Toyosaki Aki
ArtistUnicode:茅野愛衣, 中原麻衣 & 豊崎愛生
Creator:TaMul
Version:Hard
Source:Servant x Service
Tags:mingmichael
BeatmapID:287735
BeatmapSetID:108297

[Difficulty]
HPDrainRate:5
CircleSize:4
OverallDifficulty:6
ApproachRate:7
SliderMultiplier:1.9
SliderTickRate:2

[Events]
//Background and Video events
Video,0,"servant.flv"
0,0,"igODoGq9FkMVQ.jpg",0,0
//Break Periods
//Storyboard Layer 0 (Background)
//Storyboard Layer 1 (Fail)
//Storyboard Layer 2 (Pass)
//Storyboard Layer 3 (Foreground)
//Storyboard Sound Samples
//Background Colour Transformations
3,100,163,162,255

[TimingPoints]
508,400,4,2,1,80,1,0
2908,-83.3333333333333,4,1,1,80,0,0
4108,-100,4,2,1,80,0,0
8508,-100,4,3,0,80,0,0
10108,-100,4,2,1,80,0,0
17708,-200,4,2,1,80,0,0
18108,-100,4,2,1,80,0,0
20908,-200,4,2,1,80,0,0
21308,-100,4,2,1,80,0,0
24108,-200,4,2,1,80,0,0
24508,-100,4,2,1,80,0,0
42108,-100,4,1,1,80,0,0
44108,-100,4,1,2,80,0,0
44308,-100,4,1,1,80,0,0
54908,-100,4,2,1,80,0,0
57708,-200,4,2,1,80,0,0
58108,-100,4,1,1,80,0,1
67708,-100,4,2,1,80,0,0
70908,-100,4,1,1,80,0,0
71308,-100,4,2,1,80,0,0
75708,-100,4,3,0,80,0,0
77308,-100,4,1,1,80,0,0
77708,-100,4,2,1,80,0,0
82108,-100,4,3,0,80,0,0
83708,-100,4,2,1,80,0,0

[Colours]
Combo1 : 128,128,255
Combo2 : 0,255,0
Combo3 : 0,255,128
Combo4 : 255,128,128

[HitObjects]
148,52,508,2,0,L|124:108,1,47.5,4|0,0:0|0:0,0:0:0:0:
256,296,1108,2,0,L|256:248,1,47.5,4|0,0:0|0:0,0:0:0:0:
364,52,1708,2,0,L|388:108,1,47.5,4|0,0:0|0:0,0:0:0:0:
356,236,2108,6,0,P|256:152|152:236,1,285
72,152,2908,6,6,P|256:40|444:152,1,455.999986083985,0|6,0:0|0:0,0:0:0:0:
256,192,4108,6,0,B|248:248|264:248|256:296,1,95,2|0,0:0|0:0,0:0:0:0:
188,352,4508,2,0,P|256:380|320:356,2,142.5,2|2|2,0:0|0:0|0:0,0:0:0:0:
184,256,5308,5,0,0:0:0:0:
328,256,5508,1,2,0:0:0:0:
256,192,5708,2,0,B|248:144|264:144|256:96,1,95,2|0,0:0|0:0,0:0:0:0:
320,28,6108,2,0,P|256:0|192:28,2,142.5,2|2|2,0:0|0:0|0:0,0:0:0:0:
336,128,6908,6,0,P|396:108|412:68,1,95,2|0,0:0|0:0,0:0:0:0:
496,120,7308,2,0,P|456:188|336:224,1,190,2|2,0:0|0:0,0:0:0:0:
256,328,7908,1,0,0:0:0:0:
256,328,8008,2,0,P|208:304|120:328,1,142.5,2|2,0:0|0:0,0:0:0:0:
36,296,8508,6,0,P|76:248|80:208,1,95,12|0,0:0|0:0,0:0:0:0:
52,128,8908,2,0,L|40:76,1,47.5,2|0,0:0|0:0,0:0:0:0:
128,40,9208,2,0,L|116:92,1,47.5,2|0,0:0|0:0,0:0:0:0:
204,128,9508,2,0,L|192:76,1,47.5,2|0,0:0|0:0,0:0:0:0:
276,36,9808,2,2,L|265:82,2,47.5,2|2|0,0:0|0:0|0:0,0:0:0:0:
276,36,10108,6,0,P|348:64|464:32,1,190,6|2,0:0|0:0,0:0:0:0:
476,180,10808,2,0,L|448:232,1,47.5,0|2,0:0|0:0,0:0:0:0:
376,340,11208,2,0,P|348:272|272:268,1,142.5,2|2,0:0|0:0,0:0:0:0:
200,304,11708,6,0,P|152:328|108:324,1,95,0|2,0:0|0:0,0:0:0:0:
44,256,12108,2,0,P|56:200|44:160,1,95,2|0,0:0|0:0,0:0:0:0:
112,96,12508,2,0,P|148:176|140:232,2,142.5,2|2|2,0:0|0:0|0:0,0:0:0:0:
208,88,13308,6,0,B|256:68|256:68|296:88,1,95,2|0,0:0|0:0,0:0:0:0:
256,176,13708,2,0,B|248:232|248:232|264:288|264:288|256:364,1,190,2|2,0:0|0:0,0:0:0:0:
156,260,14408,1,2,0:0:0:0:
356,260,14708,2,2,L|344:364,1,95,0|2,0:0|0:0,0:0:0:0:
256,192,15108,12,0,16108,0:0:0:0:
256,192,16508,5,4,0:0:0:0:
256,192,17708,2,0,L|256:140,1,47.5
208,64,18108,6,0,P|256:48|300:64,1,95
364,132,18508,2,0,P|356:180|376:228,1,95,8|0,0:0|0:0,0:0:0:0:
420,220,18808,1,0,0:0:0:0:
464,240,18908,2,0,P|428:312|328:304,1,190,0|8,0:0|0:0,0:0:0:0:
256,128,19708,5,4,0:0:0:0:
256,128,20908,2,0,L|256:176,1,47.5
304,256,21308,6,0,P|248:268|208:252,1,95,0|0,0:0|0:0,0:0:0:0:
128,220,21708,2,0,P|136:160|120:128,1,95,8|0,0:0|0:0,0:0:0:0:
108,36,22108,2,0,P|31:130|47:186,1,190,0|8,0:0|0:0,0:0:0:0:
160,340,22908,5,4,0:0:0:0:
160,340,24108,2,0,B|188:332|188:332|224:336,1,47.5
256,252,24508,6,0,B|300:272|300:272|372:280,1,95
372,184,24908,2,0,B|328:164|328:164|256:156,1,95,8|0,0:0|0:0,0:0:0:0:
188,164,25308,2,0,B|136:176|136:176|76:172,1,95
140,88,25708,2,0,B|208:72|208:72|244:76,1,95,8|0,0:0|0:0,0:0:0:0:
280,88,26008,1,0,0:0:0:0:
328,92,26108,2,0,P|408:88|472:180,1,190,0|8,0:0|0:0,0:0:0:0:
256,192,26708,12,2,27908,0:0:0:0:
256,352,28108,5,6,0:0:0:0:
256,352,28508,6,0,L|256:256,1,95,2|2,0:0|0:0,0:0:0:0:
256,160,28908,2,0,L|256:124,6,31.6666666666667,6|0|0|0|0|0|4,0:0|0:0|0:0|0:0|0:0|0:0|0:0,0:0:0:0:
32,152,30508,6,0,P|84:176|132:168,1,95,8|0,0:0|0:0,0:0:0:0:
180,248,30908,2,0,P|224:208|188:88,1,190,0|8,0:0|0:0,0:0:0:0:
84,248,31508,1,0,0:0:0:0:
84,248,31608,1,0,0:0:0:0:
84,248,31708,6,0,P|96:300|140:332,1,95
220,332,32108,2,0,P|272:324|316:344,2,95,8|0|4,0:0|0:0|0:0,0:0:0:0:
256,32,33708,6,0,B|232:128|280:128|256:224,1,190,8|4,0:0|0:0,0:0:0:0:
180,48,34508,2,0,P|256:112|324:72,1,190,8|4,0:0|0:0,0:0:0:0:
352,260,35308,1,8,0:0:0:0:
160,260,35708,1,12,0:0:0:0:
160,260,36908,6,0,P|180:208|176:168,1,95,8|0,0:0|0:0,0:0:0:0:
256,120,37308,2,0,P|224:80|103:106,1,190,0|8,0:0|0:0,0:0:0:0:
256,220,37908,1,0,0:0:0:0:
256,220,38008,1,0,0:0:0:0:
256,220,38108,6,0,P|320:248|360:236,1,95
432,212,38508,2,0,P|428:160|452:112,1,95,8|0,0:0|0:0,0:0:0:0:
376,56,38908,2,0,P|340:144|392:328,1,285,0|0,0:0|0:0,0:0:0:0:
256,192,39708,12,2,40708,0:0:0:0:
152,300,40908,6,0,P|168:248|160:204,1,95,6|0,0:0|0:0,0:0:0:0:
200,120,41308,1,2,0:0:0:0:
256,44,41508,1,2,0:0:0:0:
312,120,41708,1,6,0:0:0:0:
444,256,42108,6,0,P|396:240|344:252,1,95,6|0,0:0|0:0,0:0:0:0:
284,312,42508,2,0,P|260:256|296:176,1,142.5,10|0,0:0|0:0,0:0:0:0:
353,247,42908,6,0,P|380:296|372:340,1,95,2|2,0:0|0:0,0:0:0:0:
284,312,43308,2,0,P|232:304|184:324,1,95,8|2,0:0|0:0,0:0:0:0:
112,368,43708,1,0,0:0:0:0:
112,368,43908,2,0,B|76:272|136:276|104:176,1,190,2|2,0:0|0:0,0:0:0:0:
24,132,44508,2,0,P|72:84|180:128,1,190,2|10,0:0|0:0,0:0:0:0:
256,172,45108,1,0,0:0:0:0:
256,172,45208,1,0,0:0:0:0:
256,172,45308,6,0,B|268:140|304:124|336:132|336:132|352:100|388:88|424:100,1,190,2|8,0:0|0:0,0:0:0:0:
436,192,45908,2,0,P|424:240|324:188,1,190,2|0,0:0|0:0,0:0:0:0:
512,196,46508,2,0,P|508:256|400:340,1,190,10|2,0:0|0:0,0:0:0:0:
328,300,47108,5,0,0:0:0:0:
236,272,47308,2,0,P|184:252|128:264,1,95,10|2,0:0|0:0,0:0:0:0:
68,316,47708,2,0,P|48:268|116:160,1,190
212,192,48308,1,0,0:0:0:0:
212,192,48408,1,0,0:0:0:0:
212,192,48508,1,4,0:0:0:0:
212,191,48908,6,0,P|224:115|164:63,1,142.5,10|2,0:0|0:0,0:0:0:0:
184,72,49308,2,0,P|236:88|280:84,1,95,0|2,0:0|0:0,0:0:0:0:
404,104,49708,2,0,P|464:92|508:108,2,95,8|2|0,0:0|0:0|0:0,0:0:0:0:
456,200,50308,1,2,0:0:0:0:
456,200,50508,1,8,0:0:0:0:
456,200,50708,6,0,P|460:284|368:312,1,190,2|0,0:0|0:0,0:0:0:0:
284,276,51308,2,0,P|224:264|180:284,1,95,10|0,0:0|0:0,0:0:0:0:
120,336,51708,6,0,P|96:280|132:200,1,142.5,4|0,0:0|0:0,0:0:0:0:
392,48,52308,2,0,P|416:104|380:184,1,142.5,4|0,0:0|0:0,0:0:0:0:
256,228,52908,2,0,B|244:152|268:152|256:80,1,142.5,4|0,0:0|0:0,0:0:0:0:
120,48,53508,2,0,P|96:104|132:184,1,142.5,4|0,0:0|0:0,0:0:0:0:
256,228,54108,6,0,L|256:280,2,47.5,8|0|0,0:0|0:0|0:0,0:0:0:0:
184,288,54508,2,0,P|252:352|324:304,1,190,8|4,0:0|0:0,0:0:0:0:
256,192,55108,12,2,56508,0:0:0:0:
160,72,57108,5,0,0:0:0:0:
352,72,57308,1,0,0:0:0:0:
256,32,57708,2,0,L|256:108,1,71.25,0|0,0:0|0:0,0:0:0:0:
200,168,58108,6,0,P|248:192|296:180,1,95,6|0,0:0|0:0,0:0:0:0:
380,160,58508,2,0,P|428:136|484:144,1,95,10|0,0:0|0:0,0:0:0:0:
448,232,58908,1,2,0:0:0:0:
356,252,59108,1,2,0:0:0:0:
420,320,59308,1,8,0:0:0:0:
380,160,59508,1,2,0:0:0:0:
276,288,59708,6,0,P|228:312|180:308,1,95,0|2,0:0|0:0,0:0:0:0:
96,280,60108,2,0,P|112:228|100:184,1,95,8|2,0:0|0:0,0:0:0:0:
165,120,60508,2,0,P|48:104|16:152,2,190,2|10|6,0:0|0:0|0:0,0:0:0:0:
256,148,61508,5,0,0:0:0:0:
346,120,61708,2,0,P|464:104|496:152,1,190,10|0,0:0|0:0,0:0:0:0:
409,189,62208,2,0,P|400:228|416:280,1,95,2|0,0:0|0:0,0:0:0:0:
416,280,62508,2,0,P|368:320|324:320,1,95,10|0,0:0|0:0,0:0:0:0:
256,272,62908,5,2,0:0:0:0:
174,322,63108,1,0,0:0:0:0:
100,264,63308,1,10,0:0:0:0:
128,172,63508,1,0,0:0:0:0:
220,188,63708,2,0,P|260:160|288:112,1,95,2|0,0:0|0:0,0:0:0:0:
256,32,64108,2,0,P|216:60|188:108,1,95,10|0,0:0|0:0,0:0:0:0:
128,172,64508,5,6,0:0:0:0:
100,264,64708,1,0,0:0:0:0:
174,322,64908,2,0,P|224:304|276:320,1,95,10|0,0:0|0:0,0:0:0:0:
360,320,65308,1,2,0:0:0:0:
360,320,65408,2,0,P|404:288|420:244,1,95,2|0,0:0|0:0,0:0:0:0:
419,251,65708,2,2,P|392:212|396:160,1,95,10|0,0:0|0:0,0:0:0:0:
488,188,66108,5,2,0:0:0:0:
460,96,66308,2,0,P|464:36|440:0,1,95,0|10,0:0|0:0,0:0:0:0:
368,64,66708,1,0,0:0:0:0:
368,64,66808,1,0,0:0:0:0:
368,64,66908,2,0,P|304:72|268:56,1,95,2|0,0:0|0:0,0:0:0:0:
148,112,67308,2,2,P|200:60|224:140,1,190,8|6,0:0|0:0,0:0:0:0:
64,160,67908,6,0,P|52:100|68:52,1,95,0|2,0:0|0:0,0:0:0:0:
320,160,68308,2,0,P|296:220|176:224,1,190,2|0,0:0|0:0,0:0:0:0:
224,140,68908,2,0,L|316:312,1,190,2|4,0:0|0:0,0:0:0:0:
256,192,70108,12,6,70908,0:0:0:0:
256,192,71308,6,0,B|264:136|248:136|256:88,1,95,2|0,0:0|0:0,0:0:0:0:
324,32,71708,2,0,P|256:4|192:28,2,142.5,2|0|2,0:0|0:0|0:0,0:0:0:0:
328,128,72508,5,0,0:0:0:0:
184,128,72708,1,2,0:0:0:0:
256,192,72908,2,0,B|264:240|248:240|256:288,1,95,2|0,0:0|0:0,0:0:0:0:
188,352,73308,2,0,P|256:380|320:356,2,142.5,2|2|2,0:0|0:0|0:0,0:0:0:0:
176,256,74108,6,0,P|116:276|100:316,1,95,2|0,0:0|0:0,0:0:0:0:
16,264,74508,2,0,P|56:196|176:160,1,190,2|2,0:0|0:0,0:0:0:0:
256,56,75208,2,0,P|304:80|392:56,1,142.5,2|2,0:0|0:0,0:0:0:0:
476,88,75708,6,0,P|436:136|432:176,1,95,12|0,0:0|0:0,0:0:0:0:
460,256,76108,2,0,L|472:308,1,47.5,2|0,0:0|0:0,0:0:0:0:
384,344,76408,2,0,L|396:292,1,47.5,2|0,0:0|0:0,0:0:0:0:
308,256,76708,2,0,L|320:308,1,47.5,2|0,0:0|0:0,0:0:0:0:
236,348,77008,2,0,L|247:302,2,47.5,2|0|0,0:0|0:0|0:0,0:0:0:0:
236,348,77308,6,0,P|164:320|48:352,1,190,6|2,0:0|0:0,0:0:0:0:
36,204,78008,2,0,L|64:152,1,47.5,0|2,0:0|0:0,0:0:0:0:
136,44,78408,2,0,P|164:112|240:116,1,142.5,2|2,0:0|0:0,0:0:0:0:
312,80,78908,6,0,P|360:56|404:60,1,95,0|2,0:0|0:0,0:0:0:0:
468,128,79308,2,0,P|456:184|468:224,1,95,2|0,0:0|0:0,0:0:0:0:
400,288,79708,2,0,P|364:208|372:152,2,142.5,2|2|2,0:0|0:0|0:0,0:0:0:0:
304,296,80508,6,0,B|256:316|256:316|216:296,1,95,2|0,0:0|0:0,0:0:0:0:
256,208,80908,2,0,B|264:152|264:152|248:96|248:96|256:20,1,190,2|2,0:0|0:0,0:0:0:0:
356,124,81608,1,2,0:0:0:0:
156,124,81908,2,0,L|168:20,1,95,2|12,0:0|0:0,0:0:0:0:
256,64,82308,5,0,0:0:0:0:
348,36,82508,2,0,L|400:44,1,47.5,2|0,0:0|0:0,0:0:0:0:
452,120,82808,2,0,L|405:127,1,47.5,2|0,0:0|0:0,0:0:0:0:
364,212,83108,2,0,L|416:220,6,47.5,2|0|0|0|2|0|4,0:0|0:0|0:0|0:0|0:0|0:0|0:0,0:0:0:0:
256,56,84108,6,0,B|236:132|276:132|256:204,1,142.5
257,196,84508,6,0,P|268:240|264:260,1,47.5
172,236,84808,2,0,P|164:280|156:296,1,47.5
172,144,85108,1,0,0:0:0:0:
364,80,85308,38,2,B|396:96|428:128|428:128|460:68|504:48,1,190,0|6,0:0|0:0,0:0:0:0:
