osu file format v12

[General]
AudioFilename: may i help you.mp3
AudioLeadIn: 0
PreviewTime: 56908
Countdown: 0
SampleSet: Soft
StackLeniency: 0.7
Mode: 0
LetterboxInBreaks: 0
WidescreenStoryboard: 1

[Editor]
Bookmarks: 3708,8508,10108,16108,16508
DistanceSpacing: 1
BeatDivisor: 4
GridSize: 4

[Metadata]
Title:May I help you? (TV Size)
TitleUnicode:めいあいへるぷゆー?(TV Size)
Artist:Kayano Ai, Nakahara Mai & Toyosaki Aki
ArtistUnicode:茅野愛衣, 中原麻衣 & 豊崎愛生
Creator:TaMul
Version:Easy
Source:Servant x Service
Tags:mingmichael
BeatmapID:287734
BeatmapSetID:108297

[Difficulty]
HPDrainRate:2
CircleSize:3
OverallDifficulty:2
ApproachRate:3
SliderMultiplier:1.2
SliderTickRate:2

[Events]
//Background and Video events
Video,0,"servant.flv"
0,0,"igODoGq9FkMVQ.jpg",0,0
//Break Periods
//Storyboard Layer 0 (Background)
//Storyboard Layer 1 (Fail)
//Storyboard Layer 2 (Pass)
//Storyboard Layer 3 (Foreground)
//Storyboard Sound Samples
//Background Colour Transformations
3,100,163,162,255

[TimingPoints]
508,400,4,2,1,80,1,0
2908,-83.3333333333333,4,1,1,80,0,0
4108,-100,4,2,1,80,0,0
5708,-100,4,2,2,100,0,0
5908,-100,4,2,1,80,0,0
8508,-100,4,3,0,80,0,0
10108,-100,4,2,1,80,0,0
12108,-100,4,2,2,80,0,0
12308,-100,4,2,1,80,0,0
12908,-100,4,2,2,80,0,0
13108,-100,4,2,1,80,0,0
14508,-100,4,2,2,80,0,0
14708,-100,4,2,1,80,0,0
42108,-100,4,1,1,80,0,0
45708,-100,4,1,2,80,0,0
45908,-100,4,1,1,80,0,0
47308,-100,4,1,2,80,0,0
47508,-100,4,1,1,80,0,0
50508,-100,4,1,2,80,0,0
50708,-100,4,1,0,80,0,0
51708,-100,4,1,1,80,0,0
54908,-100,4,2,1,80,0,0
58108,-100,4,1,1,80,0,1
60908,-100,4,1,2,80,0,1
61108,-100,4,1,1,80,0,1
61308,-100,4,2,1,80,0,1
61708,-100,4,1,1,80,0,1
67708,-100,4,2,1,80,0,0
70908,-100,4,1,1,80,0,0
71308,-100,4,2,1,80,0,0
75708,-100,4,3,0,80,0,0
77308,-100,4,1,1,80,0,0
77708,-100,4,2,1,80,0,0
82108,-100,4,3,0,80,0,0
83708,-100,4,2,1,80,0,0

[Colours]
Combo1 : 128,128,255
Combo2 : 0,255,0
Combo3 : 0,255,128
Combo4 : 255,128,128

[HitObjects]
176,256,508,2,2,P|192:192|256:248,2,180,4|4|4,0:0|0:0|0:0,0:0:0:0:
60,232,2108,2,0,P|80:144|232:80,2,240,0|2|4,0:0|0:0|0:0,0:0:0:0:
96,348,4108,6,0,P|252:324|352:336,1,240,8|8,0:0|0:0,0:0:0:0:
448,304,5308,2,0,B|456:264|424:216|376:216|376:216|328:204|300:164|312:120,1,240
208,76,6508,2,0,P|192:136|220:212,1,120,8|0,0:0|0:0,0:0:0:0:
268,292,7308,6,0,P|212:316|100:192,1,240,8|8,0:0|0:0,0:0:0:0:
84,88,8508,1,12,0:0:0:0:
256,256,9308,6,0,B|240:200|272:200|256:128,1,120,2|0,0:0|0:0,0:0:0:0:
376,116,10108,6,0,P|408:64|480:64,1,120,4|8,0:0|0:0,0:0:0:0:
480,176,10908,2,0,P|448:228|376:228,1,120,0|8,0:0|0:0,0:0:0:0:
304,316,11708,2,0,P|288:248|144:248,2,240
420,340,13708,5,8,0:0:0:0:
392,224,14108,2,0,P|348:160|196:108,1,240,0|4,0:0|0:0,0:0:0:0:
108,328,15708,6,0,P|124:276|104:200,2,120,4|8|4,3:0|3:0|0:0,0:0:0:0:
436,192,17708,2,0,P|408:176|304:184,1,120,8|2,0:0|0:0,0:0:0:0:
256,76,18508,2,0,P|200:168|264:288,1,240,10|2,0:0|0:0,0:0:0:0:
372,276,19708,1,6,0:0:0:0:
372,276,20908,6,2,P|324:312|244:312,1,120,8|2,0:0|0:0,0:0:0:0:
152,356,21708,2,0,P|156:256|280:216,1,240,10|10,0:0|0:0,0:0:0:0:
380,160,22908,1,14,0:0:0:0:
380,160,24108,6,2,P|384:108|356:40,1,120,8|2,0:0|0:0,0:0:0:0:
256,104,24908,1,10,0:0:0:0:
156,40,25308,1,2,0:0:0:0:
140,160,25708,1,10,0:0:0:0:
44,84,26108,2,2,B|8:132|24:184|24:184|60:220|48:272,1,180,0|0,0:0|0:0,0:0:0:0:
336,340,27708,6,2,P|312:304|216:304,1,120,0|10,0:0|0:0,0:0:0:0:
256,172,28508,2,0,P|360:196|444:312,1,240,2|6,0:0|0:0,0:0:0:0:
160,72,30508,6,2,P|120:124|136:196,1,120,8|2,0:0|0:0,0:0:0:0:
80,288,31308,1,8,0:0:0:0:
200,272,31708,1,0,0:0:0:0:
312,312,32108,1,8,0:0:0:0:
432,296,32508,1,6,0:0:0:0:
432,296,33708,6,2,P|464:212|448:172,2,120,8|2|10,0:0|0:0|0:0,0:0:0:0:
340,220,34908,2,4,P|280:204|212:236,2,120,2|2|4,0:0|0:0|0:0,0:0:0:0:
12,72,36908,6,2,P|80:64|120:112,1,120,8|2,0:0|0:0,0:0:0:0:
32,184,37708,1,10,0:0:0:0:
84,292,38108,1,2,0:0:0:0:
148,192,38508,1,10,0:0:0:0:
216,292,38908,6,0,B|256:288|284:248|276:204|276:204|252:160|256:112|288:56|344:20|416:24|476:60|480:112,1,480,2|0,0:0|0:0,0:0:0:0:
420,344,41308,2,0,P|424:284|408:220,2,120,2|10|4,0:0|0:0|0:0,0:0:0:0:
312,296,42508,6,0,P|304:248|268:184,2,120,8|0|8,0:0|0:0|0:0,0:0:0:0:
192,284,43708,2,0,P|156:232|100:204,2,120,0|8|0,0:0|0:0|0:0,0:0:0:0:
80,320,44908,1,8,0:0:0:0:
0,240,45308,6,0,P|8:152|152:104,1,240
256,112,46508,1,8,0:0:0:0:
376,97,46908,2,0,P|504:152|512:240,1,240
424,320,48108,6,0,P|384:304|292:320,1,120,8|0,0:0|0:0,0:0:0:0:
192,288,48908,2,8,P|152:308|60:308,2,120,8|0|8,0:0|0:0|0:0,0:0:0:0:
280,204,50108,2,0,P|336:184|464:208,1,180,0|4,0:0|0:0,0:0:0:0:
172,96,51708,6,0,P|136:140|160:264,1,180,4|0,0:0|0:0,0:0:0:0:
340,96,52908,2,0,P|376:140|352:264,1,180,4|0,0:0|0:0,0:0:0:0:
256,108,54108,5,8,0:0:0:0:
156,176,54508,1,0,0:0:0:0:
264,228,54908,1,12,0:0:0:0:
256,192,55108,12,2,56508,0:0:0:0:
40,224,58108,6,0,P|96:244|168:224,1,120,4|8,0:0|0:0,0:0:0:0:
256,168,58908,2,0,P|320:152|392:176,1,120,0|8,0:0|0:0,0:0:0:0:
460,248,59708,1,0,0:0:0:0:
344,276,60108,1,8,0:0:0:0:
371,163,60508,2,0,P|364:108|192:72,1,240,0|4,0:0|0:0,0:0:0:0:
92,56,61708,6,0,P|96:100|152:160,1,120,8|0,0:0|0:0,0:0:0:0:
148,276,62508,1,8,0:0:0:0:
252,216,62908,1,0,0:0:0:0:
256,336,63308,1,8,0:0:0:0:
148,276,63708,6,4,P|104:264|24:288,2,120,0|8|4,0:0|0:0|0:0,0:0:0:0:
256,336,64908,2,0,P|324:328|368:164,1,240,8|8,0:0|0:0,0:0:0:0:
320,80,66108,1,0,0:0:0:0:
256,180,66508,1,8,0:0:0:0:
192,80,66908,2,0,P|156:52|68:56,2,120,0|8|4,0:0|0:0|0:0,0:0:0:0:
80,220,68308,6,0,P|76:260|152:216,1,180,4|4,0:0|0:0,0:0:0:0:
236,136,69308,2,0,P|264:204|220:364,2,240,2|2|4,0:0|0:0|0:0,0:0:0:0:
136,68,71308,5,8,0:0:0:0:
244,16,71708,2,0,P|312:44|364:40,1,120,0|8,0:0|0:0,0:0:0:0:
468,88,72508,2,0,B|452:144|484:144|472:204|472:204|448:260|472:344,1,240
348,344,73708,2,0,P|332:284|340:228,1,120,8|0,0:0|0:0,0:0:0:0:
336,108,74508,6,0,B|280:124|240:68|240:68|176:68|176:68|112:92,1,240,8|8,0:0|0:0,0:0:0:0:
52,192,75708,2,0,P|60:272|256:208,1,360,14|2,0:0|0:0,0:0:0:0:
260,100,77308,6,0,P|276:52|344:32,1,120,4|8,0:0|0:0,0:0:0:0:
372,148,78108,2,0,P|416:140|492:184,1,120,0|8,0:0|0:0,0:0:0:0:
408,264,78908,5,0,0:0:0:0:
292,240,79308,1,8,0:0:0:0:
252,128,79708,1,0,0:0:0:0:
332,40,80108,1,8,0:0:0:0:
368,156,80508,6,0,P|288:244|168:208,2,240,0|0|12,0:0|0:0|0:0,0:0:0:0:
256,36,83708,1,4,0:0:0:0:
380,112,85308,6,2,B|396:124|408:144|408:144|432:104|480:80,1,120,0|6,0:0|0:0,0:0:0:0:
